  0
SECTION
  2
HEADER
  9
$ACADVER
  1
AC1021
  9
$DWGCODEPAGE
  3
ANSI_1252
  9
$EXTMAX
 10
2100.0
 20
1485.0
 30
0.0
  9
$EXTMIN
 10
0.0
 20
0.0
 30
0.0
  9
$LIMMIN
 10
0.0
 20
0.0
  9
$LIMMAX
 10
2100.0
 20
1485.0
  9
$VIEWCTR
 10
1050.0
 20
742.5
  9
$VIEWSIZE
 40
1485.0
  9
$CLAYER
  8
0
  9
$LTSCALE
 40
115.5
  9
$CELTYPE
  6
BYLAYER
  9
$DIMSCALE
 40
1.0
  9
$DIMASZ
 40
17.5
  9
$DIMEXO
 40
13.125
  9
$DIMDLI
 40
79.8
  9
$DIMEXE
 40
37.8
  9
$DIMCEN
 40
18.9
  9
$DIMLFAC
 40
1.0
  9
$DIMBLK
  1
_FILLED
  9
$DIMTXT
 40
12.5
  9
$DIMTOL
 70
1
  9
$DIMLIM
 70
0
  9
$DIMTFAC
 40
1.0
  9
$DIMTP
 40
0.05
  9
$DIMTM
 40
0.05
  9
$PDMODE
 70
3
  9
$PDSIZE
 40
0.3125
  9
$HANDSEED
  5
4FD
  9
$TILEMODE
 70
1
  9
$MEASUREMENT
 70
1
  9
$INSUNITS
 70
4
  0
ENDSEC
  0
SECTION
  2
CLASSES
  0
CLASS
  1
ACDBDICTIONARYWDFLT
  2
AcDbDictionaryWithDefault
  3
AutoCAD 2000
 90
0
 91
1
280
0
281
0
  0
CLASS
  1
ACDBPLACEHOLDER
  2
AcDbPlaceHolder
  3
AutoCAD 2000
 90
0
 91
1
280
0
281
0
  0
CLASS
  1
LAYOUT
  2
AcDbLayout
  3
AutoCAD 2000
 90
0
 91
0
280
0
281
0
  0
ENDSEC
  0
SECTION
  2
TABLES
  0
TABLE
  2
VPORT
  5
8
100
AcDbSymbolTable
 70
2
  0
VPORT
  5
1F4
100
AcDbSymbolTableRecord
100
AcDbViewportTableRecord
  2
*ACTIVE
 70
0
 10
0.0
 20
0.0
 11
1.0
 21
1.0
 12
1050.0
 22
742.5
 13
0.0
 23
0.0
 14
1.0
 24
1.0
 15
0.0
 25
0.0
 16
0.0
 26
0.0
 36
1.0
 17
0.0
 27
0.0
 37
0.0
 40
1485.0
 41
1.4141414141
 42
50.0
 43
0.0
 44
0.0
 50
0.0
 51
0.0
 71
0
 72
100
 73
1
 74
1
 75
0
 76
0
 77
0
 78
0
  0
ENDTAB
  0
TABLE
  2
LTYPE
  5
5
100
AcDbSymbolTable
 70
6
  0
LTYPE
  5
14
100
AcDbSymbolTableRecord
100
AcDbLinetypeTableRecord
  2
BYBLOCK
 70
0
  3

 72
65
 73
0
 40
0.0
  0
LTYPE
  5
15
100
AcDbSymbolTableRecord
100
AcDbLinetypeTableRecord
  2
BYLAYER
 70
0
  3

 72
65
 73
0
 40
0.0
  0
LTYPE
  5
16
100
AcDbSymbolTableRecord
100
AcDbLinetypeTableRecord
  2
CONTINUOUS
 70
64
  3
Solid line
 72
65
 73
0
 40
0.0
  0
LTYPE
  5
1F5
100
AcDbSymbolTableRecord
100
AcDbLinetypeTableRecord
  2
CENTER
 70
64
  3
____ _ ____ _ ____ _ ____ _ ____ _ ____ _ ____
 72
65
 73
4
 40
0.6
 49
0.375
 74
0
 49
-0.075
 74
0
 49
0.075
 74
0
 49
-0.075
 74
0
  0
LTYPE
  5
1F6
100
AcDbSymbolTableRecord
100
AcDbLinetypeTableRecord
  2
HIDDEN
 70
64
  3
- - - - - - - - - - - - - - - - - - - -
 72
65
 73
2
 40
0.2
 49
0.1
 74
0
 49
-0.1
 74
0
  0
LTYPE
  5
1F7
100
AcDbSymbolTableRecord
100
AcDbLinetypeTableRecord
  2
PHANTOM
 70
64
  3
_____ _ _ _____ _ _ _____ _ _ _____
 72
65
 73
6
 40
0.8
 49
0.45
 74
0
 49
-0.05
 74
0
 49
0.1
 74
0
 49
-0.05
 74
0
 49
0.1
 74
0
 49
-0.05
 74
0
  0
LTYPE
  5
1F8
100
AcDbSymbolTableRecord
100
AcDbLinetypeTableRecord
  2
DOT
 70
64
  3
. . . . . . . . . . . . . . . . . . . .
 72
65
 73
2
 40
0.2
 49
0.1
 74
0
 49
-0.1
 74
0
  0
LTYPE
  5
1F9
100
AcDbSymbolTableRecord
100
AcDbLinetypeTableRecord
  2
DASHED
 70
64
  3
- - - - - - - - - - - - - - - - - - - -
 72
65
 73
2
 40
0.2
 49
0.1
 74
0
 49
-0.1
 74
0
  0
ENDTAB
  0
TABLE
  2
LAYER
  5
2
100
AcDbSymbolTable
 70
36
  0
LAYER
  5
10
100
AcDbSymbolTableRecord
100
AcDbLayerTableRecord
  2
0
 70
0
 62
7
  6
CONTINUOUS
370
-3
390
F
  0
LAYER
  5
1FA
100
AcDbSymbolTableRecord
100
AcDbLayerTableRecord
  2
DEFAULT_1
 70
0
 62
7
  6
CENTER
370
-3
390
F
  0
LAYER
  5
1FB
100
AcDbSymbolTableRecord
100
AcDbLayerTableRecord
  2
DEFAULT_2
 70
0
 62
8
  6
HIDDEN
370
-3
390
F
  0
LAYER
  5
1FC
100
AcDbSymbolTableRecord
100
AcDbLayerTableRecord
  2
DEFAULT_3
 70
0
 62
7
  6
PHANTOM
370
-3
390
F
  0
LAYER
  5
1FD
100
AcDbSymbolTableRecord
100
AcDbLayerTableRecord
  2
ANSICHT_3D
 70
0
 62
7
  6
CONTINUOUS
370
-3
390
F
  0
LAYER
  5
1FE
100
AcDbSymbolTableRecord
100
AcDbLayerTableRecord
  2
ANSICHT_LINKS
 70
0
 62
7
  6
CONTINUOUS
370
-3
390
F
  0
LAYER
  5
1FF
100
AcDbSymbolTableRecord
100
AcDbLayerTableRecord
  2
ANSICHT_RECHTS
 70
0
 62
7
  6
CONTINUOUS
370
-3
390
F
  0
LAYER
  5
200
100
AcDbSymbolTableRecord
100
AcDbLayerTableRecord
  2
AUSBLENDEN
 70
0
 62
7
  6
CONTINUOUS
370
-3
390
F
  0
LAYER
  5
201
100
AcDbSymbolTableRecord
100
AcDbLayerTableRecord
  2
BEZUGSACHSEN
 70
0
 62
7
  6
CONTINUOUS
370
-3
390
F
  0
LAYER
  5
202
100
AcDbSymbolTableRecord
100
AcDbLayerTableRecord
  2
BEZUGSEBENEN
 70
0
 62
7
  6
CONTINUOUS
370
-3
390
F
  0
LAYER
  5
203
100
AcDbSymbolTableRecord
100
AcDbLayerTableRecord
  2
BG_STARTBEZUEGE
 70
0
 62
7
  6
CONTINUOUS
370
-3
390
F
  0
LAYER
  5
204
100
AcDbSymbolTableRecord
100
AcDbLayerTableRecord
  2
BOHRUNGEN
 70
0
 62
7
  6
CONTINUOUS
370
-3
390
F
  0
LAYER
  5
205
100
AcDbSymbolTableRecord
100
AcDbLayerTableRecord
  2
FASEN
 70
0
 62
7
  6
CONTINUOUS
370
-3
390
F
  0
LAYER
  5
206
100
AcDbSymbolTableRecord
100
AcDbLayerTableRecord
  2
FLAECHEN
 70
0
 62
7
  6
CONTINUOUS
370
-3
390
F
  0
LAYER
  5
207
100
AcDbSymbolTableRecord
100
AcDbLayerTableRecord
  2
GEWINDE
 70
0
 62
7
  6
CONTINUOUS
370
-3
390
F
  0
LAYER
  5
208
100
AcDbSymbolTableRecord
100
AcDbLayerTableRecord
  2
HILFEN
 70
0
 62
7
  6
CONTINUOUS
370
-3
390
F
  0
LAYER
  5
209
100
AcDbSymbolTableRecord
100
AcDbLayerTableRecord
  2
KOSM_3D
 70
0
 62
7
  6
CONTINUOUS
370
-3
390
F
  0
LAYER
  5
20A
100
AcDbSymbolTableRecord
100
AcDbLayerTableRecord
  2
KOSM_NEW_VIEW10
 70
0
 62
7
  6
CONTINUOUS
370
-3
390
F
  0
LAYER
  5
20B
100
AcDbSymbolTableRecord
100
AcDbLayerTableRecord
  2
KURVEN
 70
0
 62
7
  6
CONTINUOUS
370
-3
390
F
  0
LAYER
  5
20C
100
AcDbSymbolTableRecord
100
AcDbLayerTableRecord
  2
LAY0001
 70
0
 62
7
  6
CONTINUOUS
370
-3
390
F
  0
LAYER
  5
20D
100
AcDbSymbolTableRecord
100
AcDbLayerTableRecord
  2
MOTOR
 70
0
 62
7
  6
CONTINUOUS
370
-3
390
F
  0
LAYER
  5
20E
100
AcDbSymbolTableRecord
100
AcDbLayerTableRecord
  2
PLAZIERUNG
 70
0
 62
7
  6
CONTINUOUS
370
-3
390
F
  0
LAYER
  5
20F
100
AcDbSymbolTableRecord
100
AcDbLayerTableRecord
  2
RUNDUNGEN
 70
0
 62
7
  6
CONTINUOUS
370
-3
390
F
  0
LAYER
  5
210
100
AcDbSymbolTableRecord
100
AcDbLayerTableRecord
  2
STOERK
 70
0
 62
7
  6
CONTINUOUS
370
-3
390
F
  0
LAYER
  5
211
100
AcDbSymbolTableRecord
100
AcDbLayerTableRecord
  2
TEIL_STARTBEZUEGE
 70
0
 62
7
  6
CONTINUOUS
370
-3
390
F
  0
LAYER
  5
212
100
AcDbSymbolTableRecord
100
AcDbLayerTableRecord
  2
XSEC_DATUMS
 70
0
 62
7
  6
CONTINUOUS
370
-3
390
F
  0
LAYER
  5
213
100
AcDbSymbolTableRecord
100
AcDbLayerTableRecord
  2
ZEICHNUNGSBEMASSUNGEN
 70
0
 62
7
  6
CONTINUOUS
370
-3
390
F
  0
LAYER
  5
214
100
AcDbSymbolTableRecord
100
AcDbLayerTableRecord
  2
_2D_DELETED_OBJS
 70
0
 62
7
  6
CONTINUOUS
370
-3
390
F
  0
LAYER
  5
215
100
AcDbSymbolTableRecord
100
AcDbLayerTableRecord
  2
_BLACK_HOLE
 70
0
 62
7
  6
CONTINUOUS
370
-3
390
F
  0
ENDTAB
  0
TABLE
  2
STYLE
  5
3
100
AcDbSymbolTable
 70
1
  0
STYLE
  5
11
100
AcDbSymbolTableRecord
100
AcDbTextStyleTableRecord
  2
STANDARD
 70
0
 40
0.0
 41
0.7
 50
0.0
 71
0
 42
0.2
  3
txt
  4

  0
STYLE
  5
216
100
AcDbSymbolTableRecord
100
AcDbTextStyleTableRecord
  2
TEXTSTYLE_1
 70
0
 40
0.0
 41
0.8
 50
0.0
 71
0
 42
0.2
  3
gdt
  4

  0
STYLE
  5
217
100
AcDbSymbolTableRecord
100
AcDbTextStyleTableRecord
  2
TEXTSTYLE_2
 70
0
 40
0.0
 41
0.7
 50
0.0
 71
0
 42
0.2
  3
gdt
  4

  0
STYLE
  5
218
100
AcDbSymbolTableRecord
100
AcDbTextStyleTableRecord
  2
TEXTSTYLE_3
 70
0
 40
0.0
 41
0.6
 50
0.0
 71
0
 42
0.2
  3
txt
  4

  0
ENDTAB
  0
TABLE
  2
VIEW
  5
6
100
AcDbSymbolTable
 70
0
  0
ENDTAB
  0
TABLE
  2
UCS
  5
7
100
AcDbSymbolTable
 70
0
  0
ENDTAB
  0
TABLE
  2
APPID
  5
9
100
AcDbSymbolTable
 70
1
  0
APPID
  5
219
100
AcDbSymbolTableRecord
100
AcDbRegAppTableRecord
  2
ACAD
 70
0
  0
ENDTAB
  0
TABLE
  2
BLOCK_RECORD
  5
1
100
AcDbSymbolTable
 70
0
  0
BLOCK_RECORD
  5
21A
100
AcDbSymbolTableRecord
100
AcDbBlockTableRecord
  2
*Model_Space
  0
BLOCK_RECORD
  5
21B
100
AcDbSymbolTableRecord
100
AcDbBlockTableRecord
  2
*Paper_Space
  0
BLOCK_RECORD
  5
21C
100
AcDbSymbolTableRecord
100
AcDbBlockTableRecord
  2
_FILLED
  0
BLOCK_RECORD
  5
21D
100
AcDbSymbolTableRecord
100
AcDbBlockTableRecord
  2
_DOTBLANK
  0
BLOCK_RECORD
  5
21E
100
AcDbSymbolTableRecord
100
AcDbBlockTableRecord
  2
*D0
  0
BLOCK_RECORD
  5
21F
100
AcDbSymbolTableRecord
100
AcDbBlockTableRecord
  2
*D1
  0
BLOCK_RECORD
  5
220
100
AcDbSymbolTableRecord
100
AcDbBlockTableRecord
  2
*D2
  0
BLOCK_RECORD
  5
221
100
AcDbSymbolTableRecord
100
AcDbBlockTableRecord
  2
*D3
  0
BLOCK_RECORD
  5
222
100
AcDbSymbolTableRecord
100
AcDbBlockTableRecord
  2
*D4
  0
BLOCK_RECORD
  5
223
100
AcDbSymbolTableRecord
100
AcDbBlockTableRecord
  2
*D5
  0
BLOCK_RECORD
  5
224
100
AcDbSymbolTableRecord
100
AcDbBlockTableRecord
  2
*D6
  0
BLOCK_RECORD
  5
225
100
AcDbSymbolTableRecord
100
AcDbBlockTableRecord
  2
*D7
  0
BLOCK_RECORD
  5
226
100
AcDbSymbolTableRecord
100
AcDbBlockTableRecord
  2
*D8
  0
BLOCK_RECORD
  5
227
100
AcDbSymbolTableRecord
100
AcDbBlockTableRecord
  2
*D9
  0
BLOCK_RECORD
  5
228
100
AcDbSymbolTableRecord
100
AcDbBlockTableRecord
  2
*D10
  0
BLOCK_RECORD
  5
229
100
AcDbSymbolTableRecord
100
AcDbBlockTableRecord
  2
*D11
  0
BLOCK_RECORD
  5
22A
100
AcDbSymbolTableRecord
100
AcDbBlockTableRecord
  2
*D12
  0
BLOCK_RECORD
  5
22B
100
AcDbSymbolTableRecord
100
AcDbBlockTableRecord
  2
*D13
  0
BLOCK_RECORD
  5
22C
100
AcDbSymbolTableRecord
100
AcDbBlockTableRecord
  2
*D14
  0
BLOCK_RECORD
  5
22D
100
AcDbSymbolTableRecord
100
AcDbBlockTableRecord
  2
*D15
  0
BLOCK_RECORD
  5
22E
100
AcDbSymbolTableRecord
100
AcDbBlockTableRecord
  2
*D16
  0
BLOCK_RECORD
  5
22F
100
AcDbSymbolTableRecord
100
AcDbBlockTableRecord
  2
*D17
  0
BLOCK_RECORD
  5
230
100
AcDbSymbolTableRecord
100
AcDbBlockTableRecord
  2
*D18
  0
BLOCK_RECORD
  5
231
100
AcDbSymbolTableRecord
100
AcDbBlockTableRecord
  2
*D19
  0
BLOCK_RECORD
  5
232
100
AcDbSymbolTableRecord
100
AcDbBlockTableRecord
  2
*D20
  0
BLOCK_RECORD
  5
233
100
AcDbSymbolTableRecord
100
AcDbBlockTableRecord
  2
*D21
  0
BLOCK_RECORD
  5
234
100
AcDbSymbolTableRecord
100
AcDbBlockTableRecord
  2
*D22
  0
BLOCK_RECORD
  5
235
100
AcDbSymbolTableRecord
100
AcDbBlockTableRecord
  2
*D23
  0
BLOCK_RECORD
  5
236
100
AcDbSymbolTableRecord
100
AcDbBlockTableRecord
  2
*D24
  0
BLOCK_RECORD
  5
237
100
AcDbSymbolTableRecord
100
AcDbBlockTableRecord
  2
*D25
  0
BLOCK_RECORD
  5
238
100
AcDbSymbolTableRecord
100
AcDbBlockTableRecord
  2
*D26
  0
BLOCK_RECORD
  5
239
100
AcDbSymbolTableRecord
100
AcDbBlockTableRecord
  2
*D27
  0
BLOCK_RECORD
  5
23A
100
AcDbSymbolTableRecord
100
AcDbBlockTableRecord
  2
*D28
  0
BLOCK_RECORD
  5
23B
100
AcDbSymbolTableRecord
100
AcDbBlockTableRecord
  2
SYMBOL_70_BL3
  0
BLOCK_RECORD
  5
23C
100
AcDbSymbolTableRecord
100
AcDbBlockTableRecord
  2
SYMBOL_47_BL2
  0
BLOCK_RECORD
  5
23D
100
AcDbSymbolTableRecord
100
AcDbBlockTableRecord
  2
SYMBOL_38_BL1
  0
BLOCK_RECORD
  5
23E
100
AcDbSymbolTableRecord
100
AcDbBlockTableRecord
  2
SYMBOL_64_BL0
  0
ENDTAB
  0
TABLE
  2
DIMSTYLE
  5
A
100
AcDbSymbolTable
 70
1
100
AcDbDimStyleTable
 71
0
  0
DIMSTYLE
105
23F
100
AcDbSymbolTableRecord
100
AcDbDimStyleTableRecord
  2
STANDARD
 70
0
  3

  4

 40
1.0
 41
17.5
 42
0.0625
 43
0.38
 44
0.18
 45
0.0
 46
0.0
 47
0.05
 48
0.05
140
12.5
141
0.09
142
0.0
143
25.4
144
1.0
145
0.0
146
1.0
147
0.09
 71
1.0
 72
0.0
 73
0
 74
0
 75
0
 76
0
 77
1
 78
8
170
0
171
2
172
0
173
0
174
0
175
0
176
0
177
0
178
5
270
2
271
2
272
2
273
2
274
2
275
0
280
0
281
0
282
0
283
1
284
8
285
0
286
0
287
3
288
0
340
11
341
21C
342
21C
343
21C
344
21C
  0
DIMSTYLE
105
240
100
AcDbSymbolTableRecord
100
AcDbDimStyleTableRecord
  2
DIMSTYLE_1
 70
0
  3

  4

 40
1.0
 41
17.5
 42
0.0625
 43
0.38
 44
0.18
 45
0.0
 46
0.0
 47
0.5
 48
0.5
140
12.5
141
0.09
142
0.0
143
25.4
144
1.0
145
0.0
146
1.0
147
0.09
 71
0.0
 72
0.0
 73
0
 74
0
 75
0
 76
0
 77
1
 78
8
170
0
171
2
172
0
173
0
174
0
175
0
176
0
177
0
178
5
270
2
271
3
272
3
273
2
274
2
275
0
280
0
281
0
282
0
283
1
284
8
285
0
286
0
287
3
288
0
340
11
341
21C
342
21C
343
21C
344
21C
  0
DIMSTYLE
105
241
100
AcDbSymbolTableRecord
100
AcDbDimStyleTableRecord
  2
DIMSTYLE_2
 70
0
  3

  4

 40
1.0
 41
17.5
 42
0.0625
 43
0.38
 44
0.18
 45
0.0
 46
0.0
 47
0.3
 48
0.3
140
12.5
141
0.09
142
0.0
143
25.4
144
1.0
145
0.0
146
1.0
147
0.09
 71
0.0
 72
0.0
 73
0
 74
0
 75
0
 76
0
 77
1
 78
8
170
0
171
2
172
0
173
0
174
0
175
0
176
0
177
0
178
5
270
2
271
3
272
3
273
2
274
2
275
0
280
0
281
0
282
0
283
1
284
8
285
0
286
0
287
3
288
0
340
11
341
21C
342
21C
343
21C
344
21C
  0
DIMSTYLE
105
242
100
AcDbSymbolTableRecord
100
AcDbDimStyleTableRecord
  2
DIMSTYLE_3
 70
0
  3

  4

 40
1.0
 41
17.5
 42
0.0625
 43
0.38
 44
0.18
 45
0.0
 46
0.0
 47
0.5
 48
0.5
140
12.5
141
0.09
142
0.0
143
25.4
144
1.0
145
0.0
146
1.0
147
0.09
 71
0.0
 72
0.0
 73
0
 74
0
 75
0
 76
0
 77
1
 78
8
170
0
171
2
172
0
173
0
174
0
175
0
176
0
177
0
178
5
270
2
271
2
272
2
273
2
274
2
275
0
280
0
281
0
282
0
283
1
284
8
285
0
286
0
287
3
288
0
340
11
341
21C
342
21C
343
21C
344
21C
  0
DIMSTYLE
105
243
100
AcDbSymbolTableRecord
100
AcDbDimStyleTableRecord
  2
DIMSTYLE_4
 70
0
  3

  4

 40
1.0
 41
17.5
 42
0.0625
 43
0.38
 44
0.18
 45
0.0
 46
0.0
 47
0.5
 48
0.5
140
12.5
141
0.09
142
0.0
143
25.4
144
1.0
145
0.0
146
1.0
147
0.09
 71
0.0
 72
0.0
 73
0
 74
0
 75
0
 76
0
 77
1
 78
8
170
0
171
2
172
0
173
0
174
0
175
0
176
0
177
0
178
5
270
2
271
2
272
2
273
2
274
2
275
0
280
0
281
0
282
0
283
1
284
8
285
0
286
0
287
3
288
0
340
11
341
21C
342
21C
343
21C
344
21C
  0
DIMSTYLE
105
244
100
AcDbSymbolTableRecord
100
AcDbDimStyleTableRecord
  2
DIMSTYLE_5
 70
0
  3

  4

 40
1.0
 41
17.5
 42
0.0625
 43
0.38
 44
0.18
 45
0.0
 46
0.0
 47
0.2
 48
0.2
140
12.5
141
0.09
142
0.0
143
25.4
144
1.0
145
0.0
146
1.0
147
0.09
 71
0.0
 72
0.0
 73
0
 74
0
 75
0
 76
0
 77
1
 78
8
170
0
171
2
172
0
173
0
174
0
175
0
176
0
177
0
178
5
270
2
271
3
272
3
273
2
274
2
275
0
280
0
281
0
282
0
283
1
284
8
285
0
286
0
287
3
288
0
340
11
341
21C
342
21C
343
21C
344
21C
  0
DIMSTYLE
105
245
100
AcDbSymbolTableRecord
100
AcDbDimStyleTableRecord
  2
DIMSTYLE_6
 70
0
  3

  4

 40
1.0
 41
17.5
 42
0.0625
 43
0.38
 44
0.18
 45
0.0
 46
0.0
 47
-0.01
 48
0.04
140
12.5
141
0.09
142
0.0
143
25.4
144
1.0
145
0.0
146
1.0
147
0.09
 71
0.0
 72
0.0
 73
0
 74
0
 75
0
 76
0
 77
1
 78
8
170
0
171
2
172
0
173
0
174
0
175
0
176
0
177
0
178
5
270
2
271
2
272
2
273
2
274
2
275
0
280
0
281
0
282
0
283
1
284
8
285
0
286
0
287
3
288
0
340
11
341
21C
342
21C
343
21C
344
21C
  0
DIMSTYLE
105
246
100
AcDbSymbolTableRecord
100
AcDbDimStyleTableRecord
  2
DIMSTYLE_7
 70
0
  3

  4

 40
1.0
 41
17.5
 42
0.0625
 43
0.38
 44
0.18
 45
0.0
 46
0.0
 47
0.0
 48
3.0
140
12.5
141
0.09
142
0.0
143
25.4
144
1.0
145
0.0
146
0.6
147
0.09
 71
1.0
 72
0.0
 73
0
 74
0
 75
0
 76
0
 77
1
 78
8
170
0
171
2
172
0
173
0
174
0
175
0
176
0
177
0
178
5
270
2
271
2
272
2
273
2
274
2
275
0
280
0
281
0
282
0
283
1
284
8
285
0
286
0
287
3
288
0
340
11
341
21C
342
21C
343
21C
344
21C
  0
DIMSTYLE
105
247
100
AcDbSymbolTableRecord
100
AcDbDimStyleTableRecord
  2
DIMSTYLE_8
 70
0
  3

  4

 40
1.0
 41
17.5
 42
0.0625
 43
0.38
 44
0.18
 45
0.0
 46
0.0
 47
0.001
 48
0.001
140
12.5
141
0.09
142
0.0
143
25.4
144
1.0
145
0.0
146
1.0
147
0.09
 71
0.0
 72
0.0
 73
0
 74
0
 75
0
 76
0
 77
1
 78
8
170
0
171
2
172
0
173
0
174
0
175
0
176
0
177
0
178
5
270
2
271
3
272
3
273
2
274
2
275
0
280
0
281
0
282
0
283
1
284
8
285
0
286
0
287
3
288
0
340
11
341
21C
342
21C
343
21C
344
21C
  0
DIMSTYLE
105
248
100
AcDbSymbolTableRecord
100
AcDbDimStyleTableRecord
  2
DIMSTYLE_9
 70
0
  3

  4

 40
1.0
 41
17.5
 42
0.0625
 43
0.38
 44
0.18
 45
0.0
 46
0.0
 47
0.3
 48
0.3
140
12.5
141
0.09
142
0.0
143
25.4
144
1.0
145
0.0
146
1.0
147
0.09
 71
0.0
 72
0.0
 73
0
 74
0
 75
0
 76
0
 77
1
 78
8
170
0
171
2
172
0
173
0
174
0
175
0
176
0
177
0
178
5
270
2
271
2
272
2
273
2
274
2
275
0
280
0
281
0
282
0
283
1
284
8
285
0
286
0
287
3
288
0
340
11
341
21C
342
21C
343
21C
344
21C
  0
DIMSTYLE
105
249
100
AcDbSymbolTableRecord
100
AcDbDimStyleTableRecord
  2
DIMSTYLE_10
 70
0
  3

  4

 40
1.0
 41
17.5
 42
0.0625
 43
0.38
 44
0.18
 45
0.0
 46
0.0
 47
0.2
 48
0.2
140
12.5
141
0.09
142
0.0
143
25.4
144
1.0
145
0.0
146
1.0
147
0.09
 71
0.0
 72
0.0
 73
0
 74
0
 75
0
 76
0
 77
1
 78
8
170
0
171
2
172
0
173
0
174
0
175
0
176
0
177
0
178
5
270
2
271
2
272
2
273
2
274
2
275
0
280
0
281
0
282
0
283
1
284
8
285
0
286
0
287
3
288
0
340
11
341
21C
342
21C
343
21C
344
21C
  0
DIMSTYLE
105
24A
100
AcDbSymbolTableRecord
100
AcDbDimStyleTableRecord
  2
DIMSTYLE_11
 70
0
  3

  4

 40
1.0
 41
17.5
 42
0.0625
 43
0.38
 44
0.18
 45
0.0
 46
0.0
 47
0.1
 48
0.1
140
12.5
141
0.09
142
0.0
143
25.4
144
1.0
145
0.0
146
1.0
147
0.09
 71
0.0
 72
0.0
 73
0
 74
0
 75
0
 76
0
 77
1
 78
8
170
0
171
2
172
0
173
0
174
0
175
0
176
0
177
0
178
5
270
2
271
2
272
2
273
2
274
2
275
0
280
0
281
0
282
0
283
1
284
8
285
0
286
0
287
3
288
0
340
11
341
21C
342
21C
343
21C
344
21C
  0
DIMSTYLE
105
24B
100
AcDbSymbolTableRecord
100
AcDbDimStyleTableRecord
  2
DIMSTYLE_12
 70
0
  3

  4

 40
1.0
 41
17.5
 42
0.0625
 43
0.38
 44
0.18
 45
0.0
 46
0.0
 47
0.5
 48
0.5
140
12.5
141
0.09
142
0.0
143
25.4
144
1.0
145
0.0
146
1.0
147
0.09
 71
0.0
 72
0.0
 73
0
 74
0
 75
0
 76
0
 77
1
 78
8
170
0
171
2
172
0
173
0
174
0
175
0
176
0
177
0
178
5
270
2
271
1
272
1
273
2
274
2
275
0
280
0
281
0
282
0
283
1
284
8
285
0
286
0
287
3
288
0
340
11
341
21C
342
21C
343
21C
344
21C
  0
DIMSTYLE
105
24C
100
AcDbSymbolTableRecord
100
AcDbDimStyleTableRecord
  2
DIMSTYLE_13
 70
0
  3

  4

 40
1.0
 41
17.5
 42
0.0625
 43
0.38
 44
0.18
 45
0.0
 46
0.0
 47
0.3
 48
0.3000000003
140
12.5
141
0.09
142
0.0
143
25.4
144
1.0
145
0.0
146
0.6
147
0.09
 71
1.0
 72
0.0
 73
0
 74
0
 75
0
 76
0
 77
1
 78
8
170
0
171
2
172
0
173
0
174
0
175
0
176
0
177
0
178
5
270
2
271
2
272
2
273
2
274
2
275
0
280
0
281
0
282
0
283
1
284
8
285
0
286
0
287
3
288
0
340
11
341
21C
342
21C
343
21C
344
21C
  0
DIMSTYLE
105
24D
100
AcDbSymbolTableRecord
100
AcDbDimStyleTableRecord
  2
DIMSTYLE_14
 70
0
  3

  4

 40
1.0
 41
17.5
 42
0.0625
 43
0.38
 44
0.18
 45
0.0
 46
0.0
 47
0.5
 48
0.5
140
12.5
141
0.09
142
0.0
143
25.4
144
1.0
145
0.0
146
1.0
147
0.09
 71
0.0
 72
0.0
 73
0
 74
0
 75
0
 76
0
 77
1
 78
8
170
0
171
2
172
0
173
0
174
0
175
0
176
0
177
0
178
5
270
2
271
3
272
3
273
2
274
2
275
0
280
0
281
0
282
0
283
1
284
8
285
0
286
0
287
3
288
0
340
11
341
21C
342
21C
343
21C
344
21C
  0
ENDTAB
  0
ENDSEC
  0
SECTION
  2
BLOCKS
  0
BLOCK
  5
20
100
AcDbEntity
  8
0
100
AcDbBlockBegin
  2
*Model_Space
 70
0
 10
0.0
 20
0.0
 30
0.0
  3
*Model_Space
  1

  0
ENDBLK
  5
21
100
AcDbEntity
  8
0
100
AcDbBlockEnd
  0
BLOCK
  5
1C
100
AcDbEntity
  8
0
100
AcDbBlockBegin
  2
*Paper_Space
 70
0
 10
0.0
 20
0.0
 30
0.0
  3
*Paper_Space
  1

  0
ENDBLK
  5
1D
100
AcDbEntity
  8
0
100
AcDbBlockEnd
  0
BLOCK
  5
24E
100
AcDbEntity
  8
0
100
AcDbBlockBegin
 62
2
  6
CONTINUOUS
  2
SYMBOL_70_BL3
 70
64
 10
1131.5793319903
 20
846.6812558272
  3
SYMBOL_70_BL3
  1

  0
LINE
  5
24F
100
AcDbEntity
  8
0
100
AcDbLine
 62
2
  6
CONTINUOUS
 10
1100.3293319903
 20
854.2091442734
 11
1100.3293319903
 21
839.2091442734
  0
LINE
  5
250
100
AcDbEntity
  8
0
100
AcDbLine
 62
2
  6
CONTINUOUS
 10
1100.3293319903
 20
854.1812558272
 11
1112.8293319903
 21
846.6812558272
  0
LINE
  5
251
100
AcDbEntity
  8
0
100
AcDbLine
 62
2
  6
CONTINUOUS
 10
1112.8293319903
 20
846.6812558272
 11
1100.3293319903
 21
839.1812558272
  0
LINE
  5
252
100
AcDbEntity
  8
0
100
AcDbLine
 62
2
  6
CONTINUOUS
 10
1112.8293319903
 20
846.6812558272
 11
1127.8293319903
 21
846.6812558272
  0
LINE
  5
253
100
AcDbEntity
  8
0
100
AcDbLine
 62
2
  6
CONTINUOUS
 10
1127.8293319903
 20
864.1812558272
 11
1127.8293319903
 21
829.1812558272
  0
LINE
  5
254
100
AcDbEntity
  8
0
100
AcDbLine
 62
2
  6
CONTINUOUS
 10
1127.8293319903
 20
829.1812558272
 11
1162.8293319903
 21
829.1812558272
  0
LINE
  5
255
100
AcDbEntity
  8
0
100
AcDbLine
 62
2
  6
CONTINUOUS
 10
1162.8293319903
 20
829.1812558272
 11
1162.8293319903
 21
864.1812558272
  0
LINE
  5
256
100
AcDbEntity
  8
0
100
AcDbLine
 62
2
  6
CONTINUOUS
 10
1162.8293319903
 20
864.1812558272
 11
1127.8293319903
 21
864.1812558272
  0
LINE
  5
257
100
AcDbEntity
  8
0
100
AcDbLine
 62
2
  6
CONTINUOUS
 10
1100.3293319903
 20
839.6952000503
 11
1101.1859056955
 21
839.6952000503
  0
LINE
  5
258
100
AcDbEntity
  8
0
100
AcDbLine
 62
2
  6
CONTINUOUS
 10
1100.3293319903
 20
840.1952000503
 11
1102.0192390288
 21
840.1952000503
  0
LINE
  5
259
100
AcDbEntity
  8
0
100
AcDbLine
 62
2
  6
CONTINUOUS
 10
1100.3293319903
 20
840.6952000503
 11
1102.8525723621
 21
840.6952000503
  0
LINE
  5
25A
100
AcDbEntity
  8
0
100
AcDbLine
 62
2
  6
CONTINUOUS
 10
1100.3293319903
 20
841.1952000503
 11
1103.6859056955
 21
841.1952000503
  0
LINE
  5
25B
100
AcDbEntity
  8
0
100
AcDbLine
 62
2
  6
CONTINUOUS
 10
1100.3293319903
 20
841.6952000503
 11
1104.5192390288
 21
841.6952000503
  0
LINE
  5
25C
100
AcDbEntity
  8
0
100
AcDbLine
 62
2
  6
CONTINUOUS
 10
1100.3293319903
 20
842.1952000503
 11
1105.3525723621
 21
842.1952000503
  0
LINE
  5
25D
100
AcDbEntity
  8
0
100
AcDbLine
 62
2
  6
CONTINUOUS
 10
1100.3293319903
 20
842.6952000503
 11
1106.1859056955
 21
842.6952000503
  0
LINE
  5
25E
100
AcDbEntity
  8
0
100
AcDbLine
 62
2
  6
CONTINUOUS
 10
1100.3293319903
 20
843.1952000503
 11
1107.0192390288
 21
843.1952000503
  0
LINE
  5
25F
100
AcDbEntity
  8
0
100
AcDbLine
 62
2
  6
CONTINUOUS
 10
1100.3293319903
 20
843.6952000503
 11
1107.8525723621
 21
843.6952000503
  0
LINE
  5
260
100
AcDbEntity
  8
0
100
AcDbLine
 62
2
  6
CONTINUOUS
 10
1100.3293319903
 20
844.1952000503
 11
1108.6859056955
 21
844.1952000503
  0
LINE
  5
261
100
AcDbEntity
  8
0
100
AcDbLine
 62
2
  6
CONTINUOUS
 10
1100.3293319903
 20
844.6952000503
 11
1109.5192390288
 21
844.6952000503
  0
LINE
  5
262
100
AcDbEntity
  8
0
100
AcDbLine
 62
2
  6
CONTINUOUS
 10
1100.3293319903
 20
845.1952000503
 11
1110.3525723621
 21
845.1952000503
  0
LINE
  5
263
100
AcDbEntity
  8
0
100
AcDbLine
 62
2
  6
CONTINUOUS
 10
1100.3293319903
 20
845.6952000503
 11
1111.1859056955
 21
845.6952000503
  0
LINE
  5
264
100
AcDbEntity
  8
0
100
AcDbLine
 62
2
  6
CONTINUOUS
 10
1100.3293319903
 20
846.1952000503
 11
1112.0192390288
 21
846.1952000503
  0
LINE
  5
265
100
AcDbEntity
  8
0
100
AcDbLine
 62
2
  6
CONTINUOUS
 10
1100.3293319903
 20
846.6952000503
 11
1112.8060916184
 21
846.6952000503
  0
LINE
  5
266
100
AcDbEntity
  8
0
100
AcDbLine
 62
2
  6
CONTINUOUS
 10
1100.3293319903
 20
847.1952000503
 11
1111.9727582851
 21
847.1952000503
  0
LINE
  5
267
100
AcDbEntity
  8
0
100
AcDbLine
 62
2
  6
CONTINUOUS
 10
1100.3293319903
 20
847.6952000503
 11
1111.1394249518
 21
847.6952000503
  0
LINE
  5
268
100
AcDbEntity
  8
0
100
AcDbLine
 62
2
  6
CONTINUOUS
 10
1100.3293319903
 20
848.1952000503
 11
1110.3060916184
 21
848.1952000503
  0
LINE
  5
269
100
AcDbEntity
  8
0
100
AcDbLine
 62
2
  6
CONTINUOUS
 10
1100.3293319903
 20
848.6952000503
 11
1109.4727582851
 21
848.6952000503
  0
LINE
  5
26A
100
AcDbEntity
  8
0
100
AcDbLine
 62
2
  6
CONTINUOUS
 10
1100.3293319903
 20
849.1952000503
 11
1108.6394249518
 21
849.1952000503
  0
LINE
  5
26B
100
AcDbEntity
  8
0
100
AcDbLine
 62
2
  6
CONTINUOUS
 10
1100.3293319903
 20
849.6952000503
 11
1107.8060916184
 21
849.6952000503
  0
LINE
  5
26C
100
AcDbEntity
  8
0
100
AcDbLine
 62
2
  6
CONTINUOUS
 10
1100.3293319903
 20
850.1952000503
 11
1106.9727582851
 21
850.1952000503
  0
LINE
  5
26D
100
AcDbEntity
  8
0
100
AcDbLine
 62
2
  6
CONTINUOUS
 10
1100.3293319903
 20
850.6952000503
 11
1106.1394249518
 21
850.6952000503
  0
LINE
  5
26E
100
AcDbEntity
  8
0
100
AcDbLine
 62
2
  6
CONTINUOUS
 10
1100.3293319903
 20
851.1952000503
 11
1105.3060916184
 21
851.1952000503
  0
LINE
  5
26F
100
AcDbEntity
  8
0
100
AcDbLine
 62
2
  6
CONTINUOUS
 10
1100.3293319903
 20
851.6952000503
 11
1104.4727582851
 21
851.6952000503
  0
LINE
  5
270
100
AcDbEntity
  8
0
100
AcDbLine
 62
2
  6
CONTINUOUS
 10
1100.3293319903
 20
852.1952000503
 11
1103.6394249518
 21
852.1952000503
  0
LINE
  5
271
100
AcDbEntity
  8
0
100
AcDbLine
 62
2
  6
CONTINUOUS
 10
1100.3293319903
 20
852.6952000503
 11
1102.8060916184
 21
852.6952000503
  0
LINE
  5
272
100
AcDbEntity
  8
0
100
AcDbLine
 62
2
  6
CONTINUOUS
 10
1100.3293319903
 20
853.1952000503
 11
1101.9727582851
 21
853.1952000503
  0
LINE
  5
273
100
AcDbEntity
  8
0
100
AcDbLine
 62
2
  6
CONTINUOUS
 10
1100.3293319903
 20
853.6952000503
 11
1101.1394249518
 21
853.6952000503
  0
ENDBLK
  5
274
100
AcDbEntity
  8
0
  6
BYBLOCK
 62
0
100
AcDbBlockEnd
  0
BLOCK
  5
275
100
AcDbEntity
  8
0
100
AcDbBlockBegin
 62
2
  6
CONTINUOUS
  2
SYMBOL_47_BL2
 70
64
 10
1368.7010261439
 20
1180.8015240848
  3
SYMBOL_47_BL2
  1

  0
LINE
  5
276
100
AcDbEntity
  8
0
100
AcDbLine
 62
2
  6
CONTINUOUS
 10
1288.7010466137
 20
1198.3119884405
 11
1288.7010466137
 21
1163.3120002961
  0
LINE
  5
277
100
AcDbEntity
  8
0
100
AcDbLine
 62
2
  6
CONTINUOUS
 10
1288.7010466137
 20
1163.3120002961
 11
1398.7010093533
 21
1163.3120002961
  0
LINE
  5
278
100
AcDbEntity
  8
0
100
AcDbLine
 62
2
  6
CONTINUOUS
 10
1424.4104373284
 20
1163.2172648259
 11
1424.4104373284
 21
1198.3857833438
  0
LINE
  5
279
100
AcDbEntity
  8
0
100
AcDbLine
 62
2
  6
CONTINUOUS
 10
1398.7010093533
 20
1198.3119884405
 11
1288.7010466137
 21
1198.3119884405
  0
LINE
  5
27A
100
AcDbEntity
  8
0
100
AcDbLine
 62
2
  6
CONTINUOUS
 10
1323.7010347581
 20
1198.3119884405
 11
1323.7010347581
 21
1163.3120002961
  0
LINE
  5
27B
100
AcDbEntity
  8
0
100
AcDbLine
 62
2
  6
CONTINUOUS
 10
1398.7010093533
 20
1198.3119884405
 11
1398.7010093533
 21
1163.3120002961
  0
LINE
  5
27C
100
AcDbEntity
  8
0
100
AcDbLine
 62
2
  6
CONTINUOUS
 10
1398.7010093533
 20
1198.3119884405
 11
1448.5953945074
 21
1198.3857833438
  0
LINE
  5
27D
100
AcDbEntity
  8
0
100
AcDbLine
 62
2
  6
CONTINUOUS
 10
1398.6413126486
 20
1163.1116536592
 11
1448.7010056741
 21
1163.2172648259
  0
LINE
  5
27E
100
AcDbEntity
  8
0
100
AcDbLine
 62
2
  6
CONTINUOUS
 10
1448.5953945074
 20
1163.3228759926
 11
1448.5953945074
 21
1198.4913945105
  0
TEXT
  5
27F
100
AcDbEntity
  8
0
100
AcDbText
 62
5
  6
CONTINUOUS
 10
1296.043737318
 20
1175.6994500717
  7
TEXTSTYLE_2
 40
12.000000384
  1
h
 41
1.0
 72
0
100
AcDbText
  0
ENDBLK
  5
280
100
AcDbEntity
  8
0
  6
BYBLOCK
 62
0
100
AcDbBlockEnd
  0
BLOCK
  5
281
100
AcDbEntity
  8
0
100
AcDbBlockBegin
 62
2
  6
CONTINUOUS
  2
SYMBOL_38_BL1
 70
64
 10
1387.3293319903
 20
1097.7745157661
  3
SYMBOL_38_BL1
  1

  0
LINE
  5
282
100
AcDbEntity
  8
0
100
AcDbLine
 62
2
  6
CONTINUOUS
 10
1394.8432762134
 20
1066.5245157661
 11
1379.8432762134
 21
1066.5245157661
  0
LINE
  5
283
100
AcDbEntity
  8
0
100
AcDbLine
 62
2
  6
CONTINUOUS
 10
1369.8293319903
 20
1129.0245157661
 11
1404.8293319903
 21
1129.0245157661
  0
LINE
  5
284
100
AcDbEntity
  8
0
100
AcDbLine
 62
2
  6
CONTINUOUS
 10
1404.8293319903
 20
1129.0245157661
 11
1404.8293319903
 21
1094.0245157661
  0
LINE
  5
285
100
AcDbEntity
  8
0
100
AcDbLine
 62
2
  6
CONTINUOUS
 10
1404.8293319903
 20
1094.0245157661
 11
1369.8293319903
 21
1094.0245157661
  0
LINE
  5
286
100
AcDbEntity
  8
0
100
AcDbLine
 62
2
  6
CONTINUOUS
 10
1369.8293319903
 20
1094.0245157661
 11
1369.8293319903
 21
1129.0245157661
  0
LINE
  5
287
100
AcDbEntity
  8
0
100
AcDbLine
 62
2
  6
CONTINUOUS
 10
1379.8153877672
 20
1066.5245157661
 11
1387.3293319903
 21
1079.0245157661
  0
LINE
  5
288
100
AcDbEntity
  8
0
100
AcDbLine
 62
2
  6
CONTINUOUS
 10
1387.3293319903
 20
1079.0245157661
 11
1394.8153877672
 21
1066.5245157661
  0
LINE
  5
289
100
AcDbEntity
  8
0
100
AcDbLine
 62
2
  6
CONTINUOUS
 10
1387.3293319903
 20
1079.0245157661
 11
1387.3293319903
 21
1094.0245157661
  0
LINE
  5
28A
100
AcDbEntity
  8
0
100
AcDbLine
 62
2
  6
CONTINUOUS
 10
1380.3293319903
 20
1066.5245157661
 11
1380.3293319903
 21
1067.3794998594
  0
LINE
  5
28B
100
AcDbEntity
  8
0
100
AcDbLine
 62
2
  6
CONTINUOUS
 10
1380.8293319903
 20
1066.5245157661
 11
1380.8293319903
 21
1068.2112867099
  0
LINE
  5
28C
100
AcDbEntity
  8
0
100
AcDbLine
 62
2
  6
CONTINUOUS
 10
1381.3293319903
 20
1066.5245157661
 11
1381.3293319903
 21
1069.0430735603
  0
LINE
  5
28D
100
AcDbEntity
  8
0
100
AcDbLine
 62
2
  6
CONTINUOUS
 10
1381.8293319903
 20
1066.5245157661
 11
1381.8293319903
 21
1069.8748604108
  0
LINE
  5
28E
100
AcDbEntity
  8
0
100
AcDbLine
 62
2
  6
CONTINUOUS
 10
1382.3293319903
 20
1066.5245157661
 11
1382.3293319903
 21
1070.7066472613
  0
LINE
  5
28F
100
AcDbEntity
  8
0
100
AcDbLine
 62
2
  6
CONTINUOUS
 10
1382.8293319903
 20
1066.5245157661
 11
1382.8293319903
 21
1071.5384341118
  0
LINE
  5
290
100
AcDbEntity
  8
0
100
AcDbLine
 62
2
  6
CONTINUOUS
 10
1383.3293319903
 20
1066.5245157661
 11
1383.3293319903
 21
1072.3702209623
  0
LINE
  5
291
100
AcDbEntity
  8
0
100
AcDbLine
 62
2
  6
CONTINUOUS
 10
1383.8293319903
 20
1066.5245157661
 11
1383.8293319903
 21
1073.2020078127
  0
LINE
  5
292
100
AcDbEntity
  8
0
100
AcDbLine
 62
2
  6
CONTINUOUS
 10
1384.3293319903
 20
1066.5245157661
 11
1384.3293319903
 21
1074.0337946632
  0
LINE
  5
293
100
AcDbEntity
  8
0
100
AcDbLine
 62
2
  6
CONTINUOUS
 10
1384.8293319903
 20
1066.5245157661
 11
1384.8293319903
 21
1074.8655815137
  0
LINE
  5
294
100
AcDbEntity
  8
0
100
AcDbLine
 62
2
  6
CONTINUOUS
 10
1385.3293319903
 20
1066.5245157661
 11
1385.3293319903
 21
1075.6973683642
  0
LINE
  5
295
100
AcDbEntity
  8
0
100
AcDbLine
 62
2
  6
CONTINUOUS
 10
1385.8293319903
 20
1066.5245157661
 11
1385.8293319903
 21
1076.5291552146
  0
LINE
  5
296
100
AcDbEntity
  8
0
100
AcDbLine
 62
2
  6
CONTINUOUS
 10
1386.3293319903
 20
1066.5245157661
 11
1386.3293319903
 21
1077.3609420651
  0
LINE
  5
297
100
AcDbEntity
  8
0
100
AcDbLine
 62
2
  6
CONTINUOUS
 10
1386.8293319903
 20
1066.5245157661
 11
1386.8293319903
 21
1078.1927289156
  0
LINE
  5
298
100
AcDbEntity
  8
0
100
AcDbLine
 62
2
  6
CONTINUOUS
 10
1387.3293319903
 20
1066.5245157661
 11
1387.3293319903
 21
1079.0245157661
  0
LINE
  5
299
100
AcDbEntity
  8
0
100
AcDbLine
 62
2
  6
CONTINUOUS
 10
1387.8293319903
 20
1066.5245157661
 11
1387.8293319903
 21
1078.1896301886
  0
LINE
  5
29A
100
AcDbEntity
  8
0
100
AcDbLine
 62
2
  6
CONTINUOUS
 10
1388.3293319903
 20
1066.5245157661
 11
1388.3293319903
 21
1077.3547446112
  0
LINE
  5
29B
100
AcDbEntity
  8
0
100
AcDbLine
 62
2
  6
CONTINUOUS
 10
1388.8293319903
 20
1066.5245157661
 11
1388.8293319903
 21
1076.5198590338
  0
LINE
  5
29C
100
AcDbEntity
  8
0
100
AcDbLine
 62
2
  6
CONTINUOUS
 10
1389.3293319903
 20
1066.5245157661
 11
1389.3293319903
 21
1075.6849734563
  0
LINE
  5
29D
100
AcDbEntity
  8
0
100
AcDbLine
 62
2
  6
CONTINUOUS
 10
1389.8293319903
 20
1066.5245157661
 11
1389.8293319903
 21
1074.8500878789
  0
LINE
  5
29E
100
AcDbEntity
  8
0
100
AcDbLine
 62
2
  6
CONTINUOUS
 10
1390.3293319903
 20
1066.5245157661
 11
1390.3293319903
 21
1074.0152023015
  0
LINE
  5
29F
100
AcDbEntity
  8
0
100
AcDbLine
 62
2
  6
CONTINUOUS
 10
1390.8293319903
 20
1066.5245157661
 11
1390.8293319903
 21
1073.180316724
  0
LINE
  5
2A0
100
AcDbEntity
  8
0
100
AcDbLine
 62
2
  6
CONTINUOUS
 10
1391.3293319903
 20
1066.5245157661
 11
1391.3293319903
 21
1072.3454311466
  0
LINE
  5
2A1
100
AcDbEntity
  8
0
100
AcDbLine
 62
2
  6
CONTINUOUS
 10
1391.8293319903
 20
1066.5245157661
 11
1391.8293319903
 21
1071.5105455692
  0
LINE
  5
2A2
100
AcDbEntity
  8
0
100
AcDbLine
 62
2
  6
CONTINUOUS
 10
1392.3293319903
 20
1066.5245157661
 11
1392.3293319903
 21
1070.6756599917
  0
LINE
  5
2A3
100
AcDbEntity
  8
0
100
AcDbLine
 62
2
  6
CONTINUOUS
 10
1392.8293319903
 20
1066.5245157661
 11
1392.8293319903
 21
1069.8407744143
  0
LINE
  5
2A4
100
AcDbEntity
  8
0
100
AcDbLine
 62
2
  6
CONTINUOUS
 10
1393.3293319903
 20
1066.5245157661
 11
1393.3293319903
 21
1069.0058888369
  0
LINE
  5
2A5
100
AcDbEntity
  8
0
100
AcDbLine
 62
2
  6
CONTINUOUS
 10
1393.8293319903
 20
1066.5245157661
 11
1393.8293319903
 21
1068.1710032594
  0
LINE
  5
2A6
100
AcDbEntity
  8
0
100
AcDbLine
 62
2
  6
CONTINUOUS
 10
1394.3293319903
 20
1066.5245157661
 11
1394.3293319903
 21
1067.336117682
  0
ENDBLK
  5
2A7
100
AcDbEntity
  8
0
  6
BYBLOCK
 62
0
100
AcDbBlockEnd
  0
BLOCK
  5
2A8
100
AcDbEntity
  8
0
100
AcDbBlockBegin
 62
2
  6
CONTINUOUS
  2
SYMBOL_64_BL0
 70
64
 10
1302.5986994308
 20
815.2305619768
  3
SYMBOL_64_BL0
  1

  0
TEXT
  5
2A9
100
AcDbEntity
  8
0
100
AcDbText
 62
5
  6
CONTINUOUS
 10
1269.0272708593
 20
807.7305619768
  7
TEXTSTYLE_2
 40
15.0
  1
n
 41
1.0
 72
0
100
AcDbText
  0
TEXT
  5
2AA
100
AcDbEntity
  8
0
100
AcDbText
 62
5
  6
CONTINUOUS
 10
1289.0272708593
 20
807.7305619768
  7
STANDARD
 40
15.0
  1
    
 41
0.7857142857
 72
0
100
AcDbText
  0
TEXT
  5
2AB
100
AcDbEntity
  8
0
100
AcDbText
 62
5
  6
CONTINUOUS
 10
1233.0986994308
 20
809.2305619768
  7
TEXTSTYLE_2
 40
12.0
  1
b
 41
1.0
 72
0
100
AcDbText
  0
LINE
  5
2AC
100
AcDbEntity
  8
0
100
AcDbLine
 62
2
  6
CONTINUOUS
 10
1230.0986994308
 20
832.7305619768
 11
1230.0986994308
 21
797.7305619768
  0
LINE
  5
2AD
100
AcDbEntity
  8
0
100
AcDbLine
 62
2
  6
CONTINUOUS
 10
1230.0986994308
 20
797.7305619768
 11
1340.0986994308
 21
797.7305619768
  0
LINE
  5
2AE
100
AcDbEntity
  8
0
100
AcDbLine
 62
2
  6
CONTINUOUS
 10
1375.0986994308
 20
797.7305619768
 11
1375.0986994308
 21
832.7305619768
  0
LINE
  5
2AF
100
AcDbEntity
  8
0
100
AcDbLine
 62
2
  6
CONTINUOUS
 10
1340.0986994308
 20
832.7305619768
 11
1230.0986994308
 21
832.7305619768
  0
LINE
  5
2B0
100
AcDbEntity
  8
0
100
AcDbLine
 62
2
  6
CONTINUOUS
 10
1265.0986994308
 20
832.7305619768
 11
1265.0986994308
 21
797.7305619768
  0
LINE
  5
2B1
100
AcDbEntity
  8
0
100
AcDbLine
 62
2
  6
CONTINUOUS
 10
1340.0986994308
 20
832.7305619768
 11
1340.0986994308
 21
797.7305619768
  0
LINE
  5
2B2
100
AcDbEntity
  8
0
100
AcDbLine
 62
2
  6
CONTINUOUS
 10
1340.0986994308
 20
832.7305619768
 11
1375.0986994308
 21
832.7305619768
  0
LINE
  5
2B3
100
AcDbEntity
  8
0
100
AcDbLine
 62
2
  6
CONTINUOUS
 10
1340.0986994308
 20
797.7305619768
 11
1375.0986994308
 21
797.7305619768
  0
ENDBLK
  5
2B4
100
AcDbEntity
  8
0
  6
BYBLOCK
 62
0
100
AcDbBlockEnd
  0
BLOCK
  5
2B5
100
AcDbEntity
  8
0
100
AcDbBlockBegin
  2
_FILLED
 70
64
 10
0.0
 20
0.0
  3
_FILLED
  1

  0
SOLID
  5
2B6
100
AcDbEntity
  8
0
  6
BYBLOCK
 62
0
100
AcDbTrace
 10
0.0
 20
0.0
 11
-1.0
 21
0.125
 12
-1.0
 22
-0.125
 13
-1.0
 23
-0.125
  0
ENDBLK
  5
2B7
100
AcDbEntity
  8
0
  6
BYBLOCK
 62
0
100
AcDbBlockEnd
  0
BLOCK
  5
2B8
100
AcDbEntity
  8
0
100
AcDbBlockBegin
  2
_DOTBLANK
 70
64
 10
0.0
 20
0.0
  3
_DOTBLANK
  1

  0
CIRCLE
  5
2B9
100
AcDbEntity
  8
0
  6
BYBLOCK
 62
0
100
AcDbCircle
 10
0.0
 20
0.0
 40
0.125
  0
LINE
  5
2BA
100
AcDbEntity
  8
0
  6
BYBLOCK
 62
0
100
AcDbLine
 10
-1.0
 20
0.0
 11
0.0
 21
0.0
  0
ENDBLK
  5
2BB
100
AcDbEntity
  8
0
  6
BYBLOCK
 62
0
100
AcDbBlockEnd
  0
BLOCK
  5
2BC
100
AcDbEntity
  8
ZEICHNUNGSBEMASSUNGEN
100
AcDbBlockBegin
 62
2
  6
CONTINUOUS
  2
*D0
 70
65
 10
0.0
 20
0.0
  3
*D0
  1

  0
MTEXT
  5
2BD
100
AcDbEntity
  8
ZEICHNUNGSBEMASSUNGEN
100
AcDbMText
 62
5
  6
CONTINUOUS
  7
STANDARD
 71
2
 72
1
 10
1009.5017923162
 20
1247.1495157661
 30
0.0
 11
1.0
 21
0.0
 31
0.0
 44
0.9
  1
370.5
 40
12.5
 41
44.6428571429
  0
LINE
  5
2BE
100
AcDbEntity
  8
ZEICHNUNGSBEMASSUNGEN
100
AcDbLine
 62
2
  6
CONTINUOUS
 10
1212.3293319903
 20
1016.5245157661
 11
1212.3293319903
 21
1239.0245157661
  0
LINE
  5
2BF
100
AcDbEntity
  8
ZEICHNUNGSBEMASSUNGEN
100
AcDbLine
 62
2
  6
CONTINUOUS
 10
841.8293319903
 20
983.4942469034
 11
841.8293319903
 21
1239.0245157661
  0
LINE
  5
2C0
100
AcDbEntity
  8
ZEICHNUNGSBEMASSUNGEN
100
AcDbLine
 62
2
  6
CONTINUOUS
 10
1212.3293319903
 20
1231.5245157661
 11
1027.0793319903
 21
1231.5245157661
  0
LINE
  5
2C1
100
AcDbEntity
  8
ZEICHNUNGSBEMASSUNGEN
100
AcDbLine
 62
2
  6
CONTINUOUS
 10
841.8293319903
 20
1231.5245157661
 11
1027.0793319903
 21
1231.5245157661
  0
INSERT
  5
2C2
100
AcDbEntity
  8
ZEICHNUNGSBEMASSUNGEN
100
AcDbBlockReference
 62
2
  6
CONTINUOUS
  2
_FILLED
 10
1212.3293319903
 20
1231.5245157661
 41
17.5
 42
17.5
 43
17.5
  0
INSERT
  5
2C3
100
AcDbEntity
  8
ZEICHNUNGSBEMASSUNGEN
100
AcDbBlockReference
 62
2
  6
CONTINUOUS
  2
_FILLED
 10
841.8293319903
 20
1231.5245157661
 41
17.5
 42
17.5
 43
17.5
 50
180.0
  0
ENDBLK
  5
2C4
100
AcDbEntity
  8
0
  6
BYBLOCK
 62
0
100
AcDbBlockEnd
  0
BLOCK
  5
2C5
100
AcDbEntity
  8
ZEICHNUNGSBEMASSUNGEN
100
AcDbBlockBegin
 62
2
  6
CONTINUOUS
  2
*D1
 70
65
 10
0.0
 20
0.0
  3
*D1
  1

  0
MTEXT
  5
2C6
100
AcDbEntity
  8
ZEICHNUNGSBEMASSUNGEN
100
AcDbMText
 62
5
  6
CONTINUOUS
  7
STANDARD
 71
2
 72
1
 10
1042.3293319903
 20
1197.1495157661
 30
0.0
 11
1.0
 21
0.0
 31
0.0
 44
0.9
  1
116
 40
12.5
 41
24.1071428571
  0
LINE
  5
2C7
100
AcDbEntity
  8
ZEICHNUNGSBEMASSUNGEN
100
AcDbLine
 62
2
  6
CONTINUOUS
 10
1100.3293319903
 20
1069.0245157661
 11
1100.3293319903
 21
1189.0245157661
  0
LINE
  5
2C8
100
AcDbEntity
  8
ZEICHNUNGSBEMASSUNGEN
100
AcDbLine
 62
2
  6
CONTINUOUS
 10
984.3293319903
 20
950.9625395863
 11
984.3293319903
 21
1189.0245157661
  0
LINE
  5
2C9
100
AcDbEntity
  8
ZEICHNUNGSBEMASSUNGEN
100
AcDbLine
 62
2
  6
CONTINUOUS
 10
1100.3293319903
 20
1181.5245157661
 11
1042.3293319903
 21
1181.5245157661
  0
LINE
  5
2CA
100
AcDbEntity
  8
ZEICHNUNGSBEMASSUNGEN
100
AcDbLine
 62
2
  6
CONTINUOUS
 10
984.3293319903
 20
1181.5245157661
 11
1042.3293319903
 21
1181.5245157661
  0
INSERT
  5
2CB
100
AcDbEntity
  8
ZEICHNUNGSBEMASSUNGEN
100
AcDbBlockReference
 62
2
  6
CONTINUOUS
  2
_FILLED
 10
1100.3293319903
 20
1181.5245157661
 41
17.5
 42
17.5
 43
17.5
  0
INSERT
  5
2CC
100
AcDbEntity
  8
ZEICHNUNGSBEMASSUNGEN
100
AcDbBlockReference
 62
2
  6
CONTINUOUS
  2
_FILLED
 10
984.3293319903
 20
1181.5245157661
 41
17.5
 42
17.5
 43
17.5
 50
180.0
  0
ENDBLK
  5
2CD
100
AcDbEntity
  8
0
  6
BYBLOCK
 62
0
100
AcDbBlockEnd
  0
BLOCK
  5
2CE
100
AcDbEntity
  8
0
100
AcDbBlockBegin
 62
2
  6
CONTINUOUS
  2
*D2
 70
65
 10
0.0
 20
0.0
  3
*D2
  1

  0
MTEXT
  5
2CF
100
AcDbEntity
  8
0
100
AcDbMText
 62
5
  6
CONTINUOUS
  7
TEXTSTYLE_2
 71
2
 72
1
 10
292.1959567929
 20
1194.6495157661
 30
0.0
 11
1.0
 21
0.0
 31
0.0
 44
0.9
  1
{\Fgdt;o}\Ftxt;190
 40
12.5
 41
43.9732142857
  0
LINE
  5
2D0
100
AcDbEntity
  8
0
100
AcDbLine
 62
2
  6
CONTINUOUS
 10
197.1959567929
 20
1064.766862387
 11
197.1959567929
 21
1186.5245157661
  0
LINE
  5
2D1
100
AcDbEntity
  8
0
100
AcDbLine
 62
2
  6
CONTINUOUS
 10
387.1959567929
 20
1064.766862387
 11
387.1959567929
 21
1186.5245157661
  0
LINE
  5
2D2
100
AcDbEntity
  8
0
100
AcDbLine
 62
2
  6
CONTINUOUS
 10
197.1959567929
 20
1179.0245157661
 11
292.1959567929
 21
1179.0245157661
  0
LINE
  5
2D3
100
AcDbEntity
  8
0
100
AcDbLine
 62
2
  6
CONTINUOUS
 10
387.1959567929
 20
1179.0245157661
 11
292.1959567929
 21
1179.0245157661
  0
INSERT
  5
2D4
100
AcDbEntity
  8
0
100
AcDbBlockReference
 62
2
  6
CONTINUOUS
  2
_FILLED
 10
197.1959567929
 20
1179.0245157661
 41
17.5
 42
17.5
 43
17.5
 50
180.0
  0
INSERT
  5
2D5
100
AcDbEntity
  8
0
100
AcDbBlockReference
 62
2
  6
CONTINUOUS
  2
_FILLED
 10
387.1959567929
 20
1179.0245157661
 41
17.5
 42
17.5
 43
17.5
  0
ENDBLK
  5
2D6
100
AcDbEntity
  8
0
  6
BYBLOCK
 62
0
100
AcDbBlockEnd
  0
BLOCK
  5
2D7
100
AcDbEntity
  8
0
100
AcDbBlockBegin
 62
2
  6
CONTINUOUS
  2
*D3
 70
65
 10
0.0
 20
0.0
  3
*D3
  1

  0
MTEXT
  5
2D8
100
AcDbEntity
  8
0
100
AcDbMText
 62
5
  6
CONTINUOUS
  7
TEXTSTYLE_2
 71
1
 72
1
 10
415.7057822221
 20
885.7316432052
 30
0.0
 11
0.7090579152
 21
-0.7051502484
 31
0.0
 44
0.9
  1
{\Fgdt;n}\Ftxt;240
 40
12.5
 41
46.130952381
  0
LINE
  5
2D9
100
AcDbEntity
  8
0
100
AcDbLine
 62
2
  6
CONTINUOUS
 10
377.2829066183
 20
901.9064859532
 11
292.1959567929
 21
986.5245157661
  0
LINE
  5
2DA
100
AcDbEntity
  8
0
100
AcDbLine
 62
2
  6
CONTINUOUS
 10
292.1959567929
 20
986.5245157661
 11
437.3973265122
 21
842.1233607478
  0
LINE
  5
2DB
100
AcDbEntity
  8
0
100
AcDbLine
 62
2
  6
CONTINUOUS
 10
207.1090069675
 20
1071.1425455789
 11
292.1959567929
 21
986.5245157661
  0
INSERT
  5
2DC
100
AcDbEntity
  8
0
100
AcDbBlockReference
 62
2
  6
CONTINUOUS
  2
_FILLED
 10
377.2829066183
 20
901.9064859532
 41
17.5
 42
17.5
 43
17.5
 50
315.1583163283
  0
INSERT
  5
2DD
100
AcDbEntity
  8
0
100
AcDbBlockReference
 62
2
  6
CONTINUOUS
  2
_FILLED
 10
207.1090069675
 20
1071.1425455789
 41
17.5
 42
17.5
 43
17.5
 50
135.1583163283
  0
ENDBLK
  5
2DE
100
AcDbEntity
  8
0
  6
BYBLOCK
 62
0
100
AcDbBlockEnd
  0
BLOCK
  5
2DF
100
AcDbEntity
  8
0
100
AcDbBlockBegin
 62
2
  6
CONTINUOUS
  2
*D4
 70
65
 10
0.0
 20
0.0
  3
*D4
  1

  0
MTEXT
  5
2E0
100
AcDbEntity
  8
0
100
AcDbMText
 62
5
  6
CONTINUOUS
  7
STANDARD
 71
3
 72
1
 10
1077.4504363805
 20
1147.1495157661
 30
0.0
 11
1.0
 21
0.0
 31
0.0
 44
0.9
  1
28
 40
12.5
 41
19.6428571429
  0
LINE
  5
2E1
100
AcDbEntity
  8
0
100
AcDbLine
 62
2
  6
CONTINUOUS
 10
1128.3293319903
 20
1069.0245157661
 11
1128.3293319903
 21
1139.0245157661
  0
LINE
  5
2E2
100
AcDbEntity
  8
0
100
AcDbLine
 62
2
  6
CONTINUOUS
 10
1100.3293319903
 20
1069.0245157661
 11
1100.3293319903
 21
1139.0245157661
  0
LINE
  5
2E3
100
AcDbEntity
  8
0
100
AcDbLine
 62
2
  6
CONTINUOUS
 10
1128.3293319903
 20
1131.5245157661
 11
1158.3293319903
 21
1131.5245157661
  0
LINE
  5
2E4
100
AcDbEntity
  8
0
100
AcDbLine
 62
2
  6
CONTINUOUS
 10
1158.3293319903
 20
1131.5245157661
 11
1114.3293319903
 21
1131.5245157661
  0
LINE
  5
2E5
100
AcDbEntity
  8
0
100
AcDbLine
 62
2
  6
CONTINUOUS
 10
1100.3293319903
 20
1131.5245157661
 11
1057.8075792377
 21
1131.5245157661
  0
LINE
  5
2E6
100
AcDbEntity
  8
0
100
AcDbLine
 62
2
  6
CONTINUOUS
 10
1057.8075792377
 20
1131.5245157661
 11
1114.3293319903
 21
1131.5245157661
  0
INSERT
  5
2E7
100
AcDbEntity
  8
0
100
AcDbBlockReference
 62
2
  6
CONTINUOUS
  2
_FILLED
 10
1128.3293319903
 20
1131.5245157661
 41
17.5
 42
17.5
 43
17.5
 50
180.0
  0
INSERT
  5
2E8
100
AcDbEntity
  8
0
100
AcDbBlockReference
 62
2
  6
CONTINUOUS
  2
_FILLED
 10
1100.3293319903
 20
1131.5245157661
 41
17.5
 42
17.5
 43
17.5
  0
ENDBLK
  5
2E9
100
AcDbEntity
  8
0
  6
BYBLOCK
 62
0
100
AcDbBlockEnd
  0
BLOCK
  5
2EA
100
AcDbEntity
  8
0
100
AcDbBlockBegin
 62
2
  6
CONTINUOUS
  2
*D5
 70
65
 10
0.0
 20
0.0
  3
*D5
  1

  0
MTEXT
  5
2EB
100
AcDbEntity
  8
0
100
AcDbMText
 62
5
  6
CONTINUOUS
  7
TEXTSTYLE_2
 71
2
 72
1
 10
1371.7043319903
 20
981.2053821056
 30
0.0
 11
0.0
 21
1.0
 31
0.0
 44
0.9
  1
{\Fgdt;n}\Ftxt;160
 40
12.5
 41
43.4523809524
  0
LINE
  5
2EC
100
AcDbEntity
  8
0
100
AcDbLine
 62
2
  6
CONTINUOUS
 10
1102.8293319903
 20
906.5245157661
 11
1255.9366304878
 21
906.5245157661
  0
LINE
  5
2ED
100
AcDbEntity
  8
0
100
AcDbLine
 62
2
  6
CONTINUOUS
 10
1383.8277368293
 20
906.5245157661
 11
1394.8293319903
 21
906.5245157661
  0
LINE
  5
2EE
100
AcDbEntity
  8
0
100
AcDbLine
 62
2
  6
CONTINUOUS
 10
1102.8293319903
 20
1066.5245157661
 11
1394.8293319903
 21
1066.5245157661
  0
LINE
  5
2EF
100
AcDbEntity
  8
0
100
AcDbLine
 62
2
  6
CONTINUOUS
 10
1387.3293319903
 20
906.5245157661
 11
1387.3293319903
 21
986.5245157661
  0
LINE
  5
2F0
100
AcDbEntity
  8
0
100
AcDbLine
 62
2
  6
CONTINUOUS
 10
1387.3293319903
 20
1066.5245157661
 11
1387.3293319903
 21
986.5245157661
  0
INSERT
  5
2F1
100
AcDbEntity
  8
0
100
AcDbBlockReference
 62
2
  6
CONTINUOUS
  2
_FILLED
 10
1387.3293319903
 20
906.5245157661
 41
17.5
 42
17.5
 43
17.5
 50
270.0
  0
INSERT
  5
2F2
100
AcDbEntity
  8
0
100
AcDbBlockReference
 62
2
  6
CONTINUOUS
  2
_FILLED
 10
1387.3293319903
 20
1066.5245157661
 41
17.5
 42
17.5
 43
17.5
 50
90.0
  0
ENDBLK
  5
2F3
100
AcDbEntity
  8
0
  6
BYBLOCK
 62
0
100
AcDbBlockEnd
  0
BLOCK
  5
2F4
100
AcDbEntity
  8
0
100
AcDbBlockBegin
 62
2
  6
CONTINUOUS
  2
*D6
 70
65
 10
0.0
 20
0.0
  3
*D6
  1

  0
TEXT
  5
2F5
100
AcDbEntity
  8
0
100
AcDbText
 62
5
  6
CONTINUOUS
 10
1331.0445000451
 20
962.2084900538
  7
TEXTSTYLE_2
 40
12.5
  1
n
 50
89.906592694
 41
1.0
 72
1
 11
1331.058085581
 21
970.5418123132
100
AcDbText
  0
TEXT
  5
2F6
100
AcDbEntity
  8
0
100
AcDbText
 62
5
  6
CONTINUOUS
 10
1331.071671117
 20
978.8751345725
  7
STANDARD
 40
12.5
  1
80
 50
89.906592694
 41
0.7857142857
 72
1
 11
1331.0876826415
 21
988.6965500924
100
AcDbText
  0
TEXT
  5
2F7
100
AcDbEntity
  8
0
100
AcDbText
 62
5
  6
CONTINUOUS
 10
1323.6037041326
 20
998.5301925947
  7
TEXTSTYLE_3
 40
7.5
  1
 0
 50
89.906592694
 41
0.7857142857
 72
1
 11
1323.6133110473
 21
1004.4230419066
100
AcDbText
  0
TEXT
  5
2F8
100
AcDbEntity
  8
0
100
AcDbText
 62
5
  6
CONTINUOUS
 10
1333.6036908438
 20
998.5138899515
  7
TEXTSTYLE_3
 40
7.5
  1
-3
 50
89.906592694
 41
0.7142857143
 72
1
 11
1333.6124244026
 21
1003.8710256897
100
AcDbText
  0
LINE
  5
2F9
100
AcDbEntity
  8
0
100
AcDbLine
 62
2
  6
CONTINUOUS
 10
1132.8293319903
 20
1026.5172327223
 11
1344.8987950731
 21
1026.1715029853
  0
LINE
  5
2FA
100
AcDbEntity
  8
0
100
AcDbLine
 62
2
  6
CONTINUOUS
 10
1132.8293319903
 20
946.5171264116
 11
1261.9999965795
 21
946.306543807
  0
LINE
  5
2FB
100
AcDbEntity
  8
0
100
AcDbLine
 62
2
  6
CONTINUOUS
 10
1337.3988050397
 20
1026.1837299677
 11
1337.3335944672
 21
986.183783123
  0
LINE
  5
2FC
100
AcDbEntity
  8
0
100
AcDbLine
 62
2
  6
CONTINUOUS
 10
1337.2683838947
 20
946.1838362782
 11
1337.3335944672
 21
986.183783123
  0
INSERT
  5
2FD
100
AcDbEntity
  8
0
100
AcDbBlockReference
 62
2
  6
CONTINUOUS
  2
_FILLED
 10
1337.3988050397
 20
1026.1837299677
 41
17.5
 42
17.5
 43
17.5
 50
89.906592694
  0
INSERT
  5
2FE
100
AcDbEntity
  8
0
100
AcDbBlockReference
 62
2
  6
CONTINUOUS
  2
_FILLED
 10
1337.2683838947
 20
946.1838362782
 41
17.5
 42
17.5
 43
17.5
 50
269.906592694
  0
ENDBLK
  5
2FF
100
AcDbEntity
  8
0
  6
BYBLOCK
 62
0
100
AcDbBlockEnd
  0
BLOCK
  5
300
100
AcDbEntity
  8
0
100
AcDbBlockBegin
 62
2
  6
CONTINUOUS
  2
*D7
 70
65
 10
0.0
 20
0.0
  3
*D7
  1

  0
MTEXT
  5
301
100
AcDbEntity
  8
0
100
AcDbMText
 62
5
  6
CONTINUOUS
  7
STANDARD
 71
2
 72
1
 10
1171.3293319903
 20
1172.1495157661
 30
0.0
 11
1.0
 21
0.0
 31
0.0
 44
0.9
  1
82
 40
12.5
 41
19.6428571429
  0
LINE
  5
302
100
AcDbEntity
  8
0
100
AcDbLine
 62
2
  6
CONTINUOUS
 10
1130.3293319903
 20
1029.0245157661
 11
1130.3293319903
 21
1164.0245157661
  0
LINE
  5
303
100
AcDbEntity
  8
0
100
AcDbLine
 62
2
  6
CONTINUOUS
 10
1212.3293319903
 20
1016.5245157661
 11
1212.3293319903
 21
1164.0245157661
  0
LINE
  5
304
100
AcDbEntity
  8
0
100
AcDbLine
 62
2
  6
CONTINUOUS
 10
1130.3293319903
 20
1156.5245157661
 11
1171.3293319903
 21
1156.5245157661
  0
LINE
  5
305
100
AcDbEntity
  8
0
100
AcDbLine
 62
2
  6
CONTINUOUS
 10
1212.3293319903
 20
1156.5245157661
 11
1171.3293319903
 21
1156.5245157661
  0
INSERT
  5
306
100
AcDbEntity
  8
0
100
AcDbBlockReference
 62
2
  6
CONTINUOUS
  2
_FILLED
 10
1130.3293319903
 20
1156.5245157661
 41
17.5
 42
17.5
 43
17.5
 50
180.0
  0
INSERT
  5
307
100
AcDbEntity
  8
0
100
AcDbBlockReference
 62
2
  6
CONTINUOUS
  2
_FILLED
 10
1212.3293319903
 20
1156.5245157661
 41
17.5
 42
17.5
 43
17.5
  0
ENDBLK
  5
308
100
AcDbEntity
  8
0
  6
BYBLOCK
 62
0
100
AcDbBlockEnd
  0
BLOCK
  5
309
100
AcDbEntity
  8
0
100
AcDbBlockBegin
 62
2
  6
CONTINUOUS
  2
*D8
 70
65
 10
0.0
 20
0.0
  3
*D8
  1

  0
MTEXT
  5
30A
100
AcDbEntity
  8
0
100
AcDbMText
 62
5
  6
CONTINUOUS
  7
TEXTSTYLE_2
 71
3
 72
1
 10
1271.7043319903
 20
904.0245157661
 30
0.0
 11
0.0
 21
1.0
 31
0.0
 44
0.9
  1
{\Fgdt;n}\Ftxt;55
 40
12.5
 41
34.5238095238
  0
LINE
  5
30B
100
AcDbEntity
  8
0
100
AcDbLine
 62
2
  6
CONTINUOUS
 10
1214.8293319903
 20
959.0245157661
 11
1294.8293319903
 21
959.0245157661
  0
LINE
  5
30C
100
AcDbEntity
  8
0
100
AcDbLine
 62
2
  6
CONTINUOUS
 10
1214.8293319903
 20
1014.0245157661
 11
1294.8293319903
 21
1014.0245157661
  0
LINE
  5
30D
100
AcDbEntity
  8
0
100
AcDbLine
 62
2
  6
CONTINUOUS
 10
1287.3293319903
 20
959.0245157661
 11
1287.3293319903
 21
986.5245157661
  0
LINE
  5
30E
100
AcDbEntity
  8
0
100
AcDbLine
 62
2
  6
CONTINUOUS
 10
1287.3293319903
 20
986.5245157661
 11
1287.3293319903
 21
869.5007062423
  0
LINE
  5
30F
100
AcDbEntity
  8
0
100
AcDbLine
 62
2
  6
CONTINUOUS
 10
1287.3293319903
 20
1014.0245157661
 11
1287.3293319903
 21
986.5245157661
  0
INSERT
  5
310
100
AcDbEntity
  8
0
100
AcDbBlockReference
 62
2
  6
CONTINUOUS
  2
_FILLED
 10
1287.3293319903
 20
959.0245157661
 41
17.5
 42
17.5
 43
17.5
 50
270.0
  0
INSERT
  5
311
100
AcDbEntity
  8
0
100
AcDbBlockReference
 62
2
  6
CONTINUOUS
  2
_FILLED
 10
1287.3293319903
 20
1014.0245157661
 41
17.5
 42
17.5
 43
17.5
 50
90.0
  0
ENDBLK
  5
312
100
AcDbEntity
  8
0
  6
BYBLOCK
 62
0
100
AcDbBlockEnd
  0
BLOCK
  5
313
100
AcDbEntity
  8
0
100
AcDbBlockBegin
 62
2
  6
CONTINUOUS
  2
*D9
 70
65
 10
0.0
 20
0.0
  3
*D9
  1

  0
MTEXT
  5
314
100
AcDbEntity
  8
0
100
AcDbMText
 62
5
  6
CONTINUOUS
  7
STANDARD
 71
1
 72
1
 10
137.5709567929
 20
1036.5071485057
 30
0.0
 11
0.0
 21
1.0
 31
0.0
 44
0.9
  1
59
 40
12.5
 41
18.75
  0
LINE
  5
315
100
AcDbEntity
  8
0
100
AcDbLine
 62
2
  6
CONTINUOUS
 10
281.6959567929
 20
1018.0245157661
 11
145.6959567929
 21
1018.0245157661
  0
LINE
  5
316
100
AcDbEntity
  8
0
100
AcDbLine
 62
2
  6
CONTINUOUS
 10
281.6959567929
 20
959.0245157661
 11
145.6959567929
 21
959.0245157661
  0
LINE
  5
317
100
AcDbEntity
  8
0
100
AcDbLine
 62
2
  6
CONTINUOUS
 10
153.1959567929
 20
1018.0245157661
 11
153.1959567929
 21
988.5245157661
  0
LINE
  5
318
100
AcDbEntity
  8
0
100
AcDbLine
 62
2
  6
CONTINUOUS
 10
153.1959567929
 20
988.5245157661
 11
153.1959567929
 21
1055.2571485057
  0
LINE
  5
319
100
AcDbEntity
  8
0
100
AcDbLine
 62
2
  6
CONTINUOUS
 10
153.1959567929
 20
959.0245157661
 11
153.1959567929
 21
988.5245157661
  0
INSERT
  5
31A
100
AcDbEntity
  8
0
100
AcDbBlockReference
 62
2
  6
CONTINUOUS
  2
_FILLED
 10
153.1959567929
 20
1018.0245157661
 41
17.5
 42
17.5
 43
17.5
 50
90.0
  0
INSERT
  5
31B
100
AcDbEntity
  8
0
100
AcDbBlockReference
 62
2
  6
CONTINUOUS
  2
_FILLED
 10
153.1959567929
 20
959.0245157661
 41
17.5
 42
17.5
 43
17.5
 50
270.0
  0
ENDBLK
  5
31C
100
AcDbEntity
  8
0
  6
BYBLOCK
 62
0
100
AcDbBlockEnd
  0
BLOCK
  5
31D
100
AcDbEntity
  8
0
100
AcDbBlockBegin
 62
2
  6
CONTINUOUS
  2
*D10
 70
65
 10
0.0
 20
0.0
  3
*D10
  1

  0
MTEXT
  5
31E
100
AcDbEntity
  8
0
100
AcDbMText
 62
5
  6
CONTINUOUS
  7
STANDARD
 71
3
 72
1
 10
262.7073290918
 20
1169.6495157661
 30
0.0
 11
1.0
 21
0.0
 31
0.0
 44
0.9
  1
16
 40
12.5
 41
16.9642857143
  0
LINE
  5
31F
100
AcDbEntity
  8
0
100
AcDbLine
 62
2
  6
CONTINUOUS
 10
300.1959567929
 20
1020.5245157661
 11
300.1959567929
 21
1161.5245157661
  0
LINE
  5
320
100
AcDbEntity
  8
0
100
AcDbLine
 62
2
  6
CONTINUOUS
 10
284.1959567929
 20
1020.5245157661
 11
284.1959567929
 21
1161.5245157661
  0
LINE
  5
321
100
AcDbEntity
  8
0
100
AcDbLine
 62
2
  6
CONTINUOUS
 10
300.1959567929
 20
1154.0245157661
 11
330.1959567929
 21
1154.0245157661
  0
LINE
  5
322
100
AcDbEntity
  8
0
100
AcDbLine
 62
2
  6
CONTINUOUS
 10
330.1959567929
 20
1154.0245157661
 11
292.1959567929
 21
1154.0245157661
  0
LINE
  5
323
100
AcDbEntity
  8
0
100
AcDbLine
 62
2
  6
CONTINUOUS
 10
284.1959567929
 20
1154.0245157661
 11
245.7430433775
 21
1154.0245157661
  0
LINE
  5
324
100
AcDbEntity
  8
0
100
AcDbLine
 62
2
  6
CONTINUOUS
 10
245.7430433775
 20
1154.0245157661
 11
292.1959567929
 21
1154.0245157661
  0
INSERT
  5
325
100
AcDbEntity
  8
0
100
AcDbBlockReference
 62
2
  6
CONTINUOUS
  2
_FILLED
 10
300.1959567929
 20
1154.0245157661
 41
17.5
 42
17.5
 43
17.5
 50
180.0
  0
INSERT
  5
326
100
AcDbEntity
  8
0
100
AcDbBlockReference
 62
2
  6
CONTINUOUS
  2
_FILLED
 10
284.1959567929
 20
1154.0245157661
 41
17.5
 42
17.5
 43
17.5
  0
ENDBLK
  5
327
100
AcDbEntity
  8
0
  6
BYBLOCK
 62
0
100
AcDbBlockEnd
  0
BLOCK
  5
328
100
AcDbEntity
  8
0
100
AcDbBlockBegin
 62
2
  6
CONTINUOUS
  2
*D11
 70
65
 10
0.0
 20
0.0
  3
*D11
  1

  0
MTEXT
  5
329
100
AcDbEntity
  8
0
100
AcDbMText
 62
5
  6
CONTINUOUS
  7
STANDARD
 71
3
 72
1
 10
1184.4764375945
 20
1068.6495157661
 30
0.0
 11
1.0
 21
0.0
 31
0.0
 44
0.9
  1
6
 40
12.5
 41
9.8214285714
  0
LINE
  5
32A
100
AcDbEntity
  8
0
100
AcDbLine
 62
2
  6
CONTINUOUS
 10
1212.3293319903
 20
1016.5245157661
 11
1212.3293319903
 21
1060.5245157661
  0
LINE
  5
32B
100
AcDbEntity
  8
0
100
AcDbLine
 62
2
  6
CONTINUOUS
 10
1206.3293319903
 20
1020.5245157661
 11
1206.3293319903
 21
1060.5245157661
  0
LINE
  5
32C
100
AcDbEntity
  8
0
100
AcDbLine
 62
2
  6
CONTINUOUS
 10
1212.3293319903
 20
1053.0245157661
 11
1242.3293319903
 21
1053.0245157661
  0
LINE
  5
32D
100
AcDbEntity
  8
0
100
AcDbLine
 62
2
  6
CONTINUOUS
 10
1242.3293319903
 20
1053.0245157661
 11
1209.3293319903
 21
1053.0245157661
  0
LINE
  5
32E
100
AcDbEntity
  8
0
100
AcDbLine
 62
2
  6
CONTINUOUS
 10
1206.3293319903
 20
1053.0245157661
 11
1174.6550090231
 21
1053.0245157661
  0
LINE
  5
32F
100
AcDbEntity
  8
0
100
AcDbLine
 62
2
  6
CONTINUOUS
 10
1174.6550090231
 20
1053.0245157661
 11
1209.3293319903
 21
1053.0245157661
  0
INSERT
  5
330
100
AcDbEntity
  8
0
100
AcDbBlockReference
 62
2
  6
CONTINUOUS
  2
_FILLED
 10
1212.3293319903
 20
1053.0245157661
 41
17.5
 42
17.5
 43
17.5
 50
180.0
  0
INSERT
  5
331
100
AcDbEntity
  8
0
100
AcDbBlockReference
 62
2
  6
CONTINUOUS
  2
_FILLED
 10
1206.3293319903
 20
1053.0245157661
 41
17.5
 42
17.5
 43
17.5
  0
ENDBLK
  5
332
100
AcDbEntity
  8
0
  6
BYBLOCK
 62
0
100
AcDbBlockEnd
  0
BLOCK
  5
333
100
AcDbEntity
  8
0
100
AcDbBlockBegin
 62
2
  6
CONTINUOUS
  2
*D12
 70
65
 10
0.0
 20
0.0
  3
*D12
  1

  0
MTEXT
  5
334
100
AcDbEntity
  8
0
100
AcDbMText
 62
5
  6
CONTINUOUS
  7
STANDARD
 71
2
 72
1
 10
1171.3293319903
 20
1107.1495157661
 30
0.0
 11
1.0
 21
0.0
 31
0.0
 44
0.9
  1
70
 40
12.5
 41
19.6428571429
  0
LINE
  5
335
100
AcDbEntity
  8
0
100
AcDbLine
 62
2
  6
CONTINUOUS
 10
1206.3293319903
 20
1020.5245157661
 11
1206.3293319903
 21
1099.0245157661
  0
LINE
  5
336
100
AcDbEntity
  8
0
100
AcDbLine
 62
2
  6
CONTINUOUS
 10
1136.3293319903
 20
1020.5245157661
 11
1136.3293319903
 21
1099.0245157661
  0
LINE
  5
337
100
AcDbEntity
  8
0
100
AcDbLine
 62
2
  6
CONTINUOUS
 10
1206.3293319903
 20
1091.5245157661
 11
1171.3293319903
 21
1091.5245157661
  0
LINE
  5
338
100
AcDbEntity
  8
0
100
AcDbLine
 62
2
  6
CONTINUOUS
 10
1136.3293319903
 20
1091.5245157661
 11
1171.3293319903
 21
1091.5245157661
  0
INSERT
  5
339
100
AcDbEntity
  8
0
100
AcDbBlockReference
 62
2
  6
CONTINUOUS
  2
_FILLED
 10
1206.3293319903
 20
1091.5245157661
 41
17.5
 42
17.5
 43
17.5
  0
INSERT
  5
33A
100
AcDbEntity
  8
0
100
AcDbBlockReference
 62
2
  6
CONTINUOUS
  2
_FILLED
 10
1136.3293319903
 20
1091.5245157661
 41
17.5
 42
17.5
 43
17.5
 50
180.0
  0
ENDBLK
  5
33B
100
AcDbEntity
  8
0
  6
BYBLOCK
 62
0
100
AcDbBlockEnd
  0
BLOCK
  5
33C
100
AcDbEntity
  8
0
100
AcDbBlockBegin
 62
2
  6
CONTINUOUS
  2
*D13
 70
65
 10
0.0
 20
0.0
  3
*D13
  1

  0
MTEXT
  5
33D
100
AcDbEntity
  8
0
100
AcDbMText
 62
5
  6
CONTINUOUS
  7
STANDARD
 71
1
 72
1
 10
470.909777004
 20
1097.6176504735
 30
0.0
 11
0.7071067812
 21
-0.7071067812
 31
0.0
 44
0.9
  1
13.5
 40
12.5
 41
32.1428571429
  0
LINE
  5
33E
100
AcDbEntity
  8
0
100
AcDbLine
 62
2
  6
CONTINUOUS
 10
377.6406194052
 20
1062.4232368324
 11
436.127162428
 21
1120.9097798552
  0
LINE
  5
33F
100
AcDbEntity
  8
0
100
AcDbLine
 62
2
  6
CONTINUOUS
 10
368.400134567
 20
1072.2746350863
 11
426.581220882
 21
1130.4557214012
  0
LINE
  5
340
100
AcDbEntity
  8
0
100
AcDbLine
 62
2
  6
CONTINUOUS
 10
430.8238615691
 20
1115.6064789963
 11
482.5896658004
 21
1063.8406747651
  0
LINE
  5
341
100
AcDbEntity
  8
0
100
AcDbLine
 62
2
  6
CONTINUOUS
 10
482.5896658004
 20
1063.8406747651
 11
426.0508907961
 21
1120.3794497693
  0
LINE
  5
342
100
AcDbEntity
  8
0
100
AcDbLine
 62
2
  6
CONTINUOUS
 10
421.2779200231
 20
1125.1524205423
 11
400.0647165875
 21
1146.3656239779
  0
LINE
  5
343
100
AcDbEntity
  8
0
100
AcDbLine
 62
2
  6
CONTINUOUS
 10
400.0647165875
 20
1146.3656239779
 11
426.0508907961
 21
1120.3794497693
  0
INSERT
  5
344
100
AcDbEntity
  8
0
100
AcDbBlockReference
 62
2
  6
CONTINUOUS
  2
_FILLED
 10
430.8238615691
 20
1115.6064789963
 41
17.5
 42
17.5
 43
17.5
 50
135.0
  0
INSERT
  5
345
100
AcDbEntity
  8
0
100
AcDbBlockReference
 62
2
  6
CONTINUOUS
  2
_FILLED
 10
421.2779200231
 20
1125.1524205423
 41
17.5
 42
17.5
 43
17.5
 50
315.0
  0
ENDBLK
  5
346
100
AcDbEntity
  8
0
  6
BYBLOCK
 62
0
100
AcDbBlockEnd
  0
BLOCK
  5
347
100
AcDbEntity
  8
ZEICHNUNGSBEMASSUNGEN
100
AcDbBlockBegin
 62
2
  6
CONTINUOUS
  2
*D14
 70
65
 10
0.0
 20
0.0
  3
*D14
  1

  0
MTEXT
  5
348
100
AcDbEntity
  8
ZEICHNUNGSBEMASSUNGEN
100
AcDbMText
 62
5
  6
CONTINUOUS
  7
STANDARD
 71
2
 72
1
 10
1156.3293319903
 20
1197.1495157661
 30
0.0
 11
1.0
 21
0.0
 31
0.0
 44
0.9
  1
112
 40
12.5
 41
24.1071428571
  0
LINE
  5
349
100
AcDbEntity
  8
ZEICHNUNGSBEMASSUNGEN
100
AcDbLine
 62
2
  6
CONTINUOUS
 10
1212.3293319903
 20
1016.5245157661
 11
1212.3293319903
 21
1189.0245157661
  0
LINE
  5
34A
100
AcDbEntity
  8
ZEICHNUNGSBEMASSUNGEN
100
AcDbLine
 62
2
  6
CONTINUOUS
 10
1100.3293319903
 20
1069.0245157661
 11
1100.3293319903
 21
1189.0245157661
  0
LINE
  5
34B
100
AcDbEntity
  8
ZEICHNUNGSBEMASSUNGEN
100
AcDbLine
 62
2
  6
CONTINUOUS
 10
1212.3293319903
 20
1181.5245157661
 11
1156.3293319903
 21
1181.5245157661
  0
LINE
  5
34C
100
AcDbEntity
  8
ZEICHNUNGSBEMASSUNGEN
100
AcDbLine
 62
2
  6
CONTINUOUS
 10
1100.3293319903
 20
1181.5245157661
 11
1156.3293319903
 21
1181.5245157661
  0
INSERT
  5
34D
100
AcDbEntity
  8
ZEICHNUNGSBEMASSUNGEN
100
AcDbBlockReference
 62
2
  6
CONTINUOUS
  2
_FILLED
 10
1212.3293319903
 20
1181.5245157661
 41
17.5
 42
17.5
 43
17.5
  0
INSERT
  5
34E
100
AcDbEntity
  8
ZEICHNUNGSBEMASSUNGEN
100
AcDbBlockReference
 62
2
  6
CONTINUOUS
  2
_FILLED
 10
1100.3293319903
 20
1181.5245157661
 41
17.5
 42
17.5
 43
17.5
 50
180.0
  0
ENDBLK
  5
34F
100
AcDbEntity
  8
0
  6
BYBLOCK
 62
0
100
AcDbBlockEnd
  0
BLOCK
  5
350
100
AcDbEntity
  8
ZEICHNUNGSBEMASSUNGEN
100
AcDbBlockBegin
 62
2
  6
CONTINUOUS
  2
*D15
 70
65
 10
0.0
 20
0.0
  3
*D15
  1

  0
MTEXT
  5
351
100
AcDbEntity
  8
ZEICHNUNGSBEMASSUNGEN
100
AcDbMText
 62
5
  6
CONTINUOUS
  7
STANDARD
 71
2
 72
1
 10
1139.3144055998
 20
898.1303999011
 30
0.0
 11
0.3713882923
 21
0.9284776445
 31
0.0
 44
0.9
  1
5\Fgdt;{\Fgdt;~}
 40
12.5
 41
17.2619047619
  0
LINE
  5
352
100
AcDbEntity
  8
ZEICHNUNGSBEMASSUNGEN
100
AcDbLine
 62
2
  6
CONTINUOUS
 10
1125.8293312335
 20
906.5245157661
 11
1179.6809534325
 21
906.5245157661
  0
LINE
  5
353
100
AcDbEntity
  8
ZEICHNUNGSBEMASSUNGEN
100
AcDbLine
 62
2
  6
CONTINUOUS
 10
1135.8007894575
 20
908.0531021808
 11
1179.4474907627
 21
911.8716921905
  0
ARC
  5
354
100
AcDbEntity
  8
ZEICHNUNGSBEMASSUNGEN
100
AcDbCircle
 62
2
  6
CONTINUOUS
 10
1118.3289596744
 20
906.5245157661
 40
53.8519937582
100
AcDbArc
 50
338.1987376308
 51
360.0
  0
ARC
  5
355
100
AcDbEntity
  8
ZEICHNUNGSBEMASSUNGEN
100
AcDbCircle
 62
2
  6
CONTINUOUS
 10
1118.3289596744
 20
906.5245157661
 40
53.8519937582
100
AcDbArc
 50
4.9999979745
 51
36.9184705404
  0
ARC
  5
356
100
AcDbEntity
  8
ZEICHNUNGSBEMASSUNGEN
100
AcDbCircle
 62
2
  6
CONTINUOUS
 10
1118.3289596744
 20
906.5245157661
 40
53.8519937582
100
AcDbArc
 50
0.0
 51
4.9999979745
  0
SOLID
  5
357
100
AcDbEntity
  8
ZEICHNUNGSBEMASSUNGEN
100
AcDbTrace
 62
2
  6
CONTINUOUS
 10
1171.5086946049
 20
888.9011442294
 11
1172.1809534325
 21
906.5245157661
 12
1167.191318806
 22
889.6088809112
 13
1167.191318806
 23
889.6088809112
  0
SOLID
  5
358
100
AcDbEntity
  8
ZEICHNUNGSBEMASSUNGEN
100
AcDbTrace
 62
2
  6
CONTINUOUS
 10
1165.531088804
 20
927.6344150572
 11
1171.9760305039
 21
911.218024384
 12
1169.7703524066
 22
928.7157425318
 13
1169.7703524066
 23
928.7157425318
  0
ENDBLK
  5
359
100
AcDbEntity
  8
0
  6
BYBLOCK
 62
0
100
AcDbBlockEnd
  0
BLOCK
  5
35A
100
AcDbEntity
  8
ZEICHNUNGSBEMASSUNGEN
100
AcDbBlockBegin
 62
2
  6
CONTINUOUS
  2
*D16
 70
65
 10
0.0
 20
0.0
  3
*D16
  1

  0
MTEXT
  5
35B
100
AcDbEntity
  8
ZEICHNUNGSBEMASSUNGEN
100
AcDbMText
 62
5
  6
CONTINUOUS
  7
STANDARD
 71
3
 72
1
 10
1059.494395734
 20
832.1495157661
 30
0.0
 11
1.0
 21
0.0
 31
0.0
 44
0.9
  1
15
 40
12.5
 41
16.0714285714
  0
LINE
  5
35C
100
AcDbEntity
  8
ZEICHNUNGSBEMASSUNGEN
100
AcDbLine
 62
2
  6
CONTINUOUS
 10
1085.3293319903
 20
886.5245157661
 11
1085.3293319903
 21
809.0245157661
  0
LINE
  5
35D
100
AcDbEntity
  8
ZEICHNUNGSBEMASSUNGEN
100
AcDbLine
 62
2
  6
CONTINUOUS
 10
1100.3293319903
 20
886.5245157661
 11
1100.3293319903
 21
809.0245157661
  0
LINE
  5
35E
100
AcDbEntity
  8
ZEICHNUNGSBEMASSUNGEN
100
AcDbLine
 62
2
  6
CONTINUOUS
 10
1085.3293319903
 20
816.5245157661
 11
1043.4229671626
 21
816.5245157661
  0
LINE
  5
35F
100
AcDbEntity
  8
ZEICHNUNGSBEMASSUNGEN
100
AcDbLine
 62
2
  6
CONTINUOUS
 10
1043.4229671626
 20
816.5245157661
 11
1092.8293319903
 21
816.5245157661
  0
LINE
  5
360
100
AcDbEntity
  8
ZEICHNUNGSBEMASSUNGEN
100
AcDbLine
 62
2
  6
CONTINUOUS
 10
1100.3293319903
 20
816.5245157661
 11
1130.3293319903
 21
816.5245157661
  0
LINE
  5
361
100
AcDbEntity
  8
ZEICHNUNGSBEMASSUNGEN
100
AcDbLine
 62
2
  6
CONTINUOUS
 10
1130.3293319903
 20
816.5245157661
 11
1092.8293319903
 21
816.5245157661
  0
INSERT
  5
362
100
AcDbEntity
  8
ZEICHNUNGSBEMASSUNGEN
100
AcDbBlockReference
 62
2
  6
CONTINUOUS
  2
_FILLED
 10
1085.3293319903
 20
816.5245157661
 41
17.5
 42
17.5
 43
17.5
  0
INSERT
  5
363
100
AcDbEntity
  8
ZEICHNUNGSBEMASSUNGEN
100
AcDbBlockReference
 62
2
  6
CONTINUOUS
  2
_FILLED
 10
1100.3293319903
 20
816.5245157661
 41
17.5
 42
17.5
 43
17.5
 50
180.0
  0
ENDBLK
  5
364
100
AcDbEntity
  8
0
  6
BYBLOCK
 62
0
100
AcDbBlockEnd
  0
BLOCK
  5
365
100
AcDbEntity
  8
0
100
AcDbBlockBegin
 62
2
  6
CONTINUOUS
  2
*D17
 70
65
 10
0.0
 20
0.0
  3
*D17
  1

  0
TEXT
  5
366
100
AcDbEntity
  8
0
100
AcDbText
 62
5
  6
CONTINUOUS
 10
437.2016825429
 20
955.1387080699
  7
STANDARD
 40
12.5
  1
 
 50
-14.6273789514
 41
0.7857142857
 72
0
100
AcDbText
  0
TEXT
  5
367
100
AcDbEntity
  8
0
100
AcDbText
 62
5
  6
CONTINUOUS
 10
446.7047849423
 20
952.6584855053
  7
TEXTSTYLE_2
 40
12.5
  1
n
 50
-14.6273789514
 41
1.0
 72
0
100
AcDbText
  0
TEXT
  5
368
100
AcDbEntity
  8
0
100
AcDbText
 62
5
  6
CONTINUOUS
 10
462.8312617413
 20
948.4496229715
  7
STANDARD
 40
12.5
  1
215
 50
-14.6273789514
 41
0.6904761905
 72
0
100
AcDbText
  0
TEXT
  5
369
100
AcDbEntity
  8
0
100
AcDbText
 62
5
  6
CONTINUOUS
 10
489.77888348
 20
949.1677689517
  7
TEXTSTYLE_3
 40
7.5
  1
+0.3
 50
-14.6273789514
 41
0.6964285714
 72
0
100
AcDbText
  0
TEXT
  5
36A
100
AcDbEntity
  8
0
100
AcDbText
 62
5
  6
CONTINUOUS
 10
487.2535659597
 20
939.4918828723
  7
TEXTSTYLE_3
 40
7.5
  1
-0.3
 50
-14.6273789514
 41
0.6964285714
 72
0
100
AcDbText
  0
LINE
  5
36B
100
AcDbEntity
  8
0
100
AcDbLine
 62
2
  6
CONTINUOUS
 10
396.2117321466
 20
959.377352423
 11
292.1959567929
 21
986.5245157661
  0
LINE
  5
36C
100
AcDbEntity
  8
0
100
AcDbLine
 62
2
  6
CONTINUOUS
 10
292.1959567929
 20
986.5245157661
 11
506.5222624484
 21
930.5873157734
  0
LINE
  5
36D
100
AcDbEntity
  8
0
100
AcDbLine
 62
2
  6
CONTINUOUS
 10
188.1801814393
 20
1013.6716791092
 11
292.1959567929
 21
986.5245157661
  0
INSERT
  5
36E
100
AcDbEntity
  8
0
100
AcDbBlockReference
 62
2
  6
CONTINUOUS
  2
_FILLED
 10
396.2117321466
 20
959.377352423
 41
17.5
 42
17.5
 43
17.5
 50
345.3726210486
  0
INSERT
  5
36F
100
AcDbEntity
  8
0
100
AcDbBlockReference
 62
2
  6
CONTINUOUS
  2
_FILLED
 10
188.1801814393
 20
1013.6716791092
 41
17.5
 42
17.5
 43
17.5
 50
165.3726210486
  0
ENDBLK
  5
370
100
AcDbEntity
  8
0
  6
BYBLOCK
 62
0
100
AcDbBlockEnd
  0
BLOCK
  5
371
100
AcDbEntity
  8
ZEICHNUNGSBEMASSUNGEN
100
AcDbBlockBegin
 62
2
  6
CONTINUOUS
  2
*D18
 70
65
 10
0.0
 20
0.0
  3
*D18
  1

  0
MTEXT
  5
372
100
AcDbEntity
  8
ZEICHNUNGSBEMASSUNGEN
100
AcDbMText
 62
5
  6
CONTINUOUS
  7
STANDARD
 71
3
 72
1
 10
1071.781232991
 20
1122.1495157661
 30
0.0
 11
1.0
 21
0.0
 31
0.0
 44
0.9
  1
18
 40
12.5
 41
16.9642857143
  0
LINE
  5
373
100
AcDbEntity
  8
ZEICHNUNGSBEMASSUNGEN
100
AcDbLine
 62
2
  6
CONTINUOUS
 10
1100.3293319903
 20
1069.0245157661
 11
1100.3293319903
 21
1114.0245157661
  0
LINE
  5
374
100
AcDbEntity
  8
ZEICHNUNGSBEMASSUNGEN
100
AcDbLine
 62
2
  6
CONTINUOUS
 10
1118.3292536259
 20
1069.0245157661
 11
1118.3292536259
 21
1114.0245157661
  0
LINE
  5
375
100
AcDbEntity
  8
ZEICHNUNGSBEMASSUNGEN
100
AcDbLine
 62
2
  6
CONTINUOUS
 10
1100.3293319903
 20
1106.5245157661
 11
1054.8169472767
 21
1106.5245157661
  0
LINE
  5
376
100
AcDbEntity
  8
ZEICHNUNGSBEMASSUNGEN
100
AcDbLine
 62
2
  6
CONTINUOUS
 10
1054.8169472767
 20
1106.5245157661
 11
1109.3292928081
 21
1106.5245157661
  0
LINE
  5
377
100
AcDbEntity
  8
ZEICHNUNGSBEMASSUNGEN
100
AcDbLine
 62
2
  6
CONTINUOUS
 10
1118.3292536259
 20
1106.5245157661
 11
1148.3292536259
 21
1106.5245157661
  0
LINE
  5
378
100
AcDbEntity
  8
ZEICHNUNGSBEMASSUNGEN
100
AcDbLine
 62
2
  6
CONTINUOUS
 10
1148.3292536259
 20
1106.5245157661
 11
1109.3292928081
 21
1106.5245157661
  0
INSERT
  5
379
100
AcDbEntity
  8
ZEICHNUNGSBEMASSUNGEN
100
AcDbBlockReference
 62
2
  6
CONTINUOUS
  2
_FILLED
 10
1100.3293319903
 20
1106.5245157661
 41
17.5
 42
17.5
 43
17.5
  0
INSERT
  5
37A
100
AcDbEntity
  8
ZEICHNUNGSBEMASSUNGEN
100
AcDbBlockReference
 62
2
  6
CONTINUOUS
  2
_FILLED
 10
1118.3292536259
 20
1106.5245157661
 41
17.5
 42
17.5
 43
17.5
 50
180.0
  0
ENDBLK
  5
37B
100
AcDbEntity
  8
0
  6
BYBLOCK
 62
0
100
AcDbBlockEnd
  0
BLOCK
  5
37C
100
AcDbEntity
  8
0
100
AcDbBlockBegin
 62
2
  6
CONTINUOUS
  2
*D19
 70
65
 10
0.0
 20
0.0
  3
*D19
  1

  0
MTEXT
  5
37D
100
AcDbEntity
  8
0
100
AcDbMText
 62
5
  6
CONTINUOUS
  7
STANDARD
 71
2
 72
1
 10
896.5793319903
 20
1132.1495157661
 30
0.0
 11
1.0
 21
0.0
 31
0.0
 44
0.9
  1
109.5
 40
12.5
 41
42.8571428571
  0
LINE
  5
37E
100
AcDbEntity
  8
0
100
AcDbLine
 62
2
  6
CONTINUOUS
 10
951.3293319903
 20
1099.0245157661
 11
951.3293319903
 21
1124.0245157661
  0
LINE
  5
37F
100
AcDbEntity
  8
0
100
AcDbLine
 62
2
  6
CONTINUOUS
 10
841.8293319903
 20
1099.0245157661
 11
841.8293319903
 21
1124.0245157661
  0
LINE
  5
380
100
AcDbEntity
  8
0
100
AcDbLine
 62
2
  6
CONTINUOUS
 10
951.3293319903
 20
1116.5245157661
 11
896.5793319903
 21
1116.5245157661
  0
LINE
  5
381
100
AcDbEntity
  8
0
100
AcDbLine
 62
2
  6
CONTINUOUS
 10
841.8293319903
 20
1116.5245157661
 11
896.5793319903
 21
1116.5245157661
  0
INSERT
  5
382
100
AcDbEntity
  8
0
100
AcDbBlockReference
 62
2
  6
CONTINUOUS
  2
_FILLED
 10
951.3293319903
 20
1116.5245157661
 41
17.5
 42
17.5
 43
17.5
  0
INSERT
  5
383
100
AcDbEntity
  8
0
100
AcDbBlockReference
 62
2
  6
CONTINUOUS
  2
_FILLED
 10
841.8293319903
 20
1116.5245157661
 41
17.5
 42
17.5
 43
17.5
 50
180.0
  0
ENDBLK
  5
384
100
AcDbEntity
  8
0
  6
BYBLOCK
 62
0
100
AcDbBlockEnd
  0
BLOCK
  5
385
100
AcDbEntity
  8
0
100
AcDbBlockBegin
 62
2
  6
CONTINUOUS
  2
*D20
 70
65
 10
0.0
 20
0.0
  3
*D20
  1

  0
MTEXT
  5
386
100
AcDbEntity
  8
0
100
AcDbMText
 62
5
  6
CONTINUOUS
  7
TEXTSTYLE_2
 71
2
 72
1
 10
1799.5159869559
 20
1172.1495157661
 30
0.0
 11
1.0
 21
0.0
 31
0.0
 44
0.9
  1
{\Fgdt;o}\Ftxt;220
 40
12.5
 41
46.6517857143
  0
LINE
  5
387
100
AcDbEntity
  8
0
100
AcDbLine
 62
2
  6
CONTINUOUS
 10
1689.5159869559
 20
1063.9078127805
 11
1689.5159869559
 21
1164.0245157661
  0
LINE
  5
388
100
AcDbEntity
  8
0
100
AcDbLine
 62
2
  6
CONTINUOUS
 10
1909.5159869559
 20
1063.5313920983
 11
1909.5159869559
 21
1164.0245157661
  0
LINE
  5
389
100
AcDbEntity
  8
0
100
AcDbLine
 62
2
  6
CONTINUOUS
 10
1689.5159869559
 20
1156.5245157661
 11
1799.5159869559
 21
1156.5245157661
  0
LINE
  5
38A
100
AcDbEntity
  8
0
100
AcDbLine
 62
2
  6
CONTINUOUS
 10
1909.5159869559
 20
1156.5245157661
 11
1799.5159869559
 21
1156.5245157661
  0
INSERT
  5
38B
100
AcDbEntity
  8
0
100
AcDbBlockReference
 62
2
  6
CONTINUOUS
  2
_FILLED
 10
1689.5159869559
 20
1156.5245157661
 41
17.5
 42
17.5
 43
17.5
 50
180.0
  0
INSERT
  5
38C
100
AcDbEntity
  8
0
100
AcDbBlockReference
 62
2
  6
CONTINUOUS
  2
_FILLED
 10
1909.5159869559
 20
1156.5245157661
 41
17.5
 42
17.5
 43
17.5
  0
ENDBLK
  5
38D
100
AcDbEntity
  8
0
  6
BYBLOCK
 62
0
100
AcDbBlockEnd
  0
BLOCK
  5
38E
100
AcDbEntity
  8
0
100
AcDbBlockBegin
 62
2
  6
CONTINUOUS
  2
*D21
 70
65
 10
0.0
 20
0.0
  3
*D21
  1

  0
MTEXT
  5
38F
100
AcDbEntity
  8
0
100
AcDbMText
 62
5
  6
CONTINUOUS
  7
TEXTSTYLE_2
 71
3
 72
1
 10
1663.2943700312
 20
893.8765855389
 30
0.0
 11
0.7698111365
 21
0.63827174
 31
0.0
 44
0.9
  1
{\Fgdt;n}\Ftxt;260
 40
12.5
 41
46.130952381
  0
LINE
  5
390
100
AcDbEntity
  8
0
100
AcDbLine
 62
2
  6
CONTINUOUS
 10
1699.4405392101
 20
903.5491895632
 11
1799.5159869559
 21
986.5245157661
  0
LINE
  5
391
100
AcDbEntity
  8
0
100
AcDbLine
 62
2
  6
CONTINUOUS
 10
1799.5159869559
 20
986.5245157661
 11
1637.7552450886
 21
852.4042032859
  0
LINE
  5
392
100
AcDbEntity
  8
0
100
AcDbLine
 62
2
  6
CONTINUOUS
 10
1899.5914347017
 20
1069.499841969
 11
1799.5159869559
 21
986.5245157661
  0
INSERT
  5
393
100
AcDbEntity
  8
0
100
AcDbBlockReference
 62
2
  6
CONTINUOUS
  2
_FILLED
 10
1699.4405392101
 20
903.5491895632
 41
17.5
 42
17.5
 43
17.5
 50
219.6630678947
  0
INSERT
  5
394
100
AcDbEntity
  8
0
100
AcDbBlockReference
 62
2
  6
CONTINUOUS
  2
_FILLED
 10
1899.5914347017
 20
1069.499841969
 41
17.5
 42
17.5
 43
17.5
 50
39.6630678947
  0
ENDBLK
  5
395
100
AcDbEntity
  8
0
  6
BYBLOCK
 62
0
100
AcDbBlockEnd
  0
BLOCK
  5
396
100
AcDbEntity
  8
0
100
AcDbBlockBegin
 62
2
  6
CONTINUOUS
  2
*D22
 70
65
 10
0.0
 20
0.0
  3
*D22
  1

  0
MTEXT
  5
397
100
AcDbEntity
  8
0
100
AcDbMText
 62
5
  6
CONTINUOUS
  7
TEXTSTYLE_2
 71
1
 72
1
 10
1924.1853619446
 20
830.6681581186
 30
0.0
 11
0.5615942462
 21
-0.8274127764
 31
0.0
 44
0.9
  1
{\Fgdt;n}\Ftxt;235
 40
12.5
 41
44.3452380952
  0
LINE
  5
398
100
AcDbEntity
  8
0
100
AcDbLine
 62
2
  6
CONTINUOUS
 10
1865.5033108889
 20
889.3035145361
 11
1799.5159869559
 21
986.5245157661
  0
LINE
  5
399
100
AcDbEntity
  8
0
100
AcDbLine
 62
2
  6
CONTINUOUS
 10
1799.5159869559
 20
986.5245157661
 11
1936.1610678753
 21
785.2014314475
  0
LINE
  5
39A
100
AcDbEntity
  8
0
100
AcDbLine
 62
2
  6
CONTINUOUS
 10
1733.5286630228
 20
1083.745516996
 11
1799.5159869559
 21
986.5245157661
  0
INSERT
  5
39B
100
AcDbEntity
  8
0
100
AcDbBlockReference
 62
2
  6
CONTINUOUS
  2
_FILLED
 10
1865.5033108889
 20
889.3035145361
 41
17.5
 42
17.5
 43
17.5
 50
304.1661223465
  0
INSERT
  5
39C
100
AcDbEntity
  8
0
100
AcDbBlockReference
 62
2
  6
CONTINUOUS
  2
_FILLED
 10
1733.5286630228
 20
1083.745516996
 41
17.5
 42
17.5
 43
17.5
 50
124.1661223465
  0
ENDBLK
  5
39D
100
AcDbEntity
  8
0
  6
BYBLOCK
 62
0
100
AcDbBlockEnd
  0
BLOCK
  5
39E
100
AcDbEntity
  8
0
100
AcDbBlockBegin
 62
2
  6
CONTINUOUS
  2
*D23
 70
65
 10
0.0
 20
0.0
  3
*D23
  1

  0
MTEXT
  5
39F
100
AcDbEntity
  8
0
100
AcDbMText
 62
5
  6
CONTINUOUS
  7
STANDARD
 71
3
 72
1
 10
1770.5335883353
 20
1137.1495157661
 30
0.0
 11
1.0
 21
0.0
 31
0.0
 44
0.9
  1
M12
 40
12.5
 41
27.6785714286
  0
LINE
  5
3A0
100
AcDbEntity
  8
0
100
AcDbLine
 62
2
  6
CONTINUOUS
 10
1876.6008404255
 20
1069.9599344344
 11
1876.5683717387
 21
1129.0827483976
  0
LINE
  5
3A1
100
AcDbEntity
  8
0
100
AcDbLine
 62
2
  6
CONTINUOUS
 10
1888.6008438939
 20
1069.9569139802
 11
1888.5683699292
 21
1129.0893384795
  0
LINE
  5
3A2
100
AcDbEntity
  8
0
100
AcDbLine
 62
2
  6
CONTINUOUS
 10
1876.5724905399
 20
1121.5827495286
 11
1742.8550169067
 21
1121.5245157661
  0
LINE
  5
3A3
100
AcDbEntity
  8
0
100
AcDbLine
 62
2
  6
CONTINUOUS
 10
1742.8550169067
 20
1121.5245157661
 11
1882.5724896351
 21
1121.5860445695
  0
LINE
  5
3A4
100
AcDbEntity
  8
0
100
AcDbLine
 62
2
  6
CONTINUOUS
 10
1888.5724887303
 20
1121.5893396105
 11
1918.5724842064
 21
1121.6058148151
  0
LINE
  5
3A5
100
AcDbEntity
  8
0
100
AcDbLine
 62
2
  6
CONTINUOUS
 10
1918.5724842064
 20
1121.6058148151
 11
1882.5724896351
 21
1121.5860445695
  0
INSERT
  5
3A6
100
AcDbEntity
  8
0
100
AcDbBlockReference
 62
2
  6
CONTINUOUS
  2
_FILLED
 10
1876.5724905399
 20
1121.5827495286
 41
17.5
 42
17.5
 43
17.5
 50
0.0249522259
  0
INSERT
  5
3A7
100
AcDbEntity
  8
0
100
AcDbBlockReference
 62
2
  6
CONTINUOUS
  2
_FILLED
 10
1888.5724887303
 20
1121.5893396105
 41
17.5
 42
17.5
 43
17.5
 50
180.0314653246
  0
ENDBLK
  5
3A8
100
AcDbEntity
  8
0
  6
BYBLOCK
 62
0
100
AcDbBlockEnd
  0
BLOCK
  5
3A9
100
AcDbEntity
  8
0
100
AcDbBlockBegin
 62
2
  6
CONTINUOUS
  2
*D24
 70
65
 10
0.0
 20
0.0
  3
*D24
  1

  0
MTEXT
  5
3AA
100
AcDbEntity
  8
0
100
AcDbMText
 62
5
  6
CONTINUOUS
  7
TEXTSTYLE_2
 71
3
 72
1
 10
751.2043319903
 20
938.7514462272
 30
0.0
 11
0.0
 21
1.0
 31
0.0
 44
0.9
  1
{\Fgdt;n}\Ftxt;42
 40
12.5
 41
36.3095238095
  0
LINE
  5
3AB
100
AcDbEntity
  8
0
100
AcDbLine
 62
2
  6
CONTINUOUS
 10
910.3293319903
 20
965.5245157661
 11
759.3293319903
 21
965.5245157661
  0
LINE
  5
3AC
100
AcDbEntity
  8
0
100
AcDbLine
 62
2
  6
CONTINUOUS
 10
910.3293319903
 20
1007.5245157661
 11
759.3293319903
 21
1007.5245157661
  0
LINE
  5
3AD
100
AcDbEntity
  8
0
100
AcDbLine
 62
2
  6
CONTINUOUS
 10
766.8293319903
 20
965.5245157661
 11
766.8293319903
 21
902.4419224177
  0
LINE
  5
3AE
100
AcDbEntity
  8
0
100
AcDbLine
 62
2
  6
CONTINUOUS
 10
766.8293319903
 20
902.4419224177
 11
766.8293319903
 21
986.5245157661
  0
LINE
  5
3AF
100
AcDbEntity
  8
0
100
AcDbLine
 62
2
  6
CONTINUOUS
 10
766.8293319903
 20
1007.5245157661
 11
766.8293319903
 21
1037.5245157661
  0
LINE
  5
3B0
100
AcDbEntity
  8
0
100
AcDbLine
 62
2
  6
CONTINUOUS
 10
766.8293319903
 20
1037.5245157661
 11
766.8293319903
 21
986.5245157661
  0
INSERT
  5
3B1
100
AcDbEntity
  8
0
100
AcDbBlockReference
 62
2
  6
CONTINUOUS
  2
_FILLED
 10
766.8293319903
 20
965.5245157661
 41
17.5
 42
17.5
 43
17.5
 50
90.0
  0
INSERT
  5
3B2
100
AcDbEntity
  8
0
100
AcDbBlockReference
 62
2
  6
CONTINUOUS
  2
_FILLED
 10
766.8293319903
 20
1007.5245157661
 41
17.5
 42
17.5
 43
17.5
 50
270.0
  0
ENDBLK
  5
3B3
100
AcDbEntity
  8
0
  6
BYBLOCK
 62
0
100
AcDbBlockEnd
  0
BLOCK
  5
3B4
100
AcDbEntity
  8
0
100
AcDbBlockBegin
 62
2
  6
CONTINUOUS
  2
*D25
 70
65
 10
0.0
 20
0.0
  3
*D25
  1

  0
MTEXT
  5
3B5
100
AcDbEntity
  8
0
100
AcDbMText
 62
5
  6
CONTINUOUS
  7
STANDARD
 71
2
 72
1
 10
913.0793319903
 20
1197.1495157661
 30
0.0
 11
1.0
 21
0.0
 31
0.0
 44
0.9
  1
142.5
 40
12.5
 41
42.8571428571
  0
LINE
  5
3B6
100
AcDbEntity
  8
0
100
AcDbLine
 62
2
  6
CONTINUOUS
 10
841.8293319903
 20
1099.0245157661
 11
841.8293319903
 21
1189.0245157661
  0
LINE
  5
3B7
100
AcDbEntity
  8
0
100
AcDbLine
 62
2
  6
CONTINUOUS
 10
984.3293319903
 20
1099.0245157661
 11
984.3293319903
 21
1189.0245157661
  0
LINE
  5
3B8
100
AcDbEntity
  8
0
100
AcDbLine
 62
2
  6
CONTINUOUS
 10
841.8293319903
 20
1181.5245157661
 11
913.0793319903
 21
1181.5245157661
  0
LINE
  5
3B9
100
AcDbEntity
  8
0
100
AcDbLine
 62
2
  6
CONTINUOUS
 10
984.3293319903
 20
1181.5245157661
 11
913.0793319903
 21
1181.5245157661
  0
INSERT
  5
3BA
100
AcDbEntity
  8
0
100
AcDbBlockReference
 62
2
  6
CONTINUOUS
  2
_FILLED
 10
841.8293319903
 20
1181.5245157661
 41
17.5
 42
17.5
 43
17.5
 50
180.0
  0
INSERT
  5
3BB
100
AcDbEntity
  8
0
100
AcDbBlockReference
 62
2
  6
CONTINUOUS
  2
_FILLED
 10
984.3293319903
 20
1181.5245157661
 41
17.5
 42
17.5
 43
17.5
  0
ENDBLK
  5
3BC
100
AcDbEntity
  8
0
  6
BYBLOCK
 62
0
100
AcDbBlockEnd
  0
BLOCK
  5
3BD
100
AcDbEntity
  8
0
100
AcDbBlockBegin
 62
2
  6
CONTINUOUS
  2
*D26
 70
65
 10
0.0
 20
0.0
  3
*D26
  1

  0
MTEXT
  5
3BE
100
AcDbEntity
  8
0
100
AcDbMText
 62
5
  6
CONTINUOUS
  7
STANDARD
 71
2
 72
1
 10
901.8293319903
 20
832.1495157661
 30
0.0
 11
1.0
 21
0.0
 31
0.0
 44
0.9
  1
120
 40
12.5
 41
26.7857142857
  0
LINE
  5
3BF
100
AcDbEntity
  8
0
100
AcDbLine
 62
2
  6
CONTINUOUS
 10
841.8293319903
 20
874.0245157661
 11
841.8293319903
 21
809.0245157661
  0
LINE
  5
3C0
100
AcDbEntity
  8
0
100
AcDbLine
 62
2
  6
CONTINUOUS
 10
961.8293319903
 20
965.0362373785
 11
961.8293319903
 21
809.0245157661
  0
LINE
  5
3C1
100
AcDbEntity
  8
0
100
AcDbLine
 62
2
  6
CONTINUOUS
 10
841.8293319903
 20
816.5245157661
 11
901.8293319903
 21
816.5245157661
  0
LINE
  5
3C2
100
AcDbEntity
  8
0
100
AcDbLine
 62
2
  6
CONTINUOUS
 10
961.8293319903
 20
816.5245157661
 11
901.8293319903
 21
816.5245157661
  0
INSERT
  5
3C3
100
AcDbEntity
  8
0
100
AcDbBlockReference
 62
2
  6
CONTINUOUS
  2
_FILLED
 10
841.8293319903
 20
816.5245157661
 41
17.5
 42
17.5
 43
17.5
 50
180.0
  0
INSERT
  5
3C4
100
AcDbEntity
  8
0
100
AcDbBlockReference
 62
2
  6
CONTINUOUS
  2
_FILLED
 10
961.8293319903
 20
816.5245157661
 41
17.5
 42
17.5
 43
17.5
  0
ENDBLK
  5
3C5
100
AcDbEntity
  8
0
  6
BYBLOCK
 62
0
100
AcDbBlockEnd
  0
BLOCK
  5
3C6
100
AcDbEntity
  8
0
100
AcDbBlockBegin
 62
2
  6
CONTINUOUS
  2
*D27
 70
65
 10
0.0
 20
0.0
  3
*D27
  1

  0
MTEXT
  5
3C7
100
AcDbEntity
  8
0
100
AcDbMText
 62
5
  6
CONTINUOUS
  7
STANDARD
 71
3
 72
1
 10
804.4156108274
 20
867.1495157661
 30
0.0
 11
1.0
 21
0.0
 31
0.0
 44
0.9
  1
6.25
 40
12.5
 41
35.7142857143
  0
LINE
  5
3C8
100
AcDbEntity
  8
0
100
AcDbLine
 62
2
  6
CONTINUOUS
 10
841.8293319903
 20
929.0245157661
 11
841.8293319903
 21
844.0245157661
  0
LINE
  5
3C9
100
AcDbEntity
  8
0
100
AcDbLine
 62
2
  6
CONTINUOUS
 10
848.0793319903
 20
929.0245157661
 11
848.0793319903
 21
844.0245157661
  0
LINE
  5
3CA
100
AcDbEntity
  8
0
100
AcDbLine
 62
2
  6
CONTINUOUS
 10
841.8293319903
 20
851.5245157661
 11
768.7013251131
 21
851.5245157661
  0
LINE
  5
3CB
100
AcDbEntity
  8
0
100
AcDbLine
 62
2
  6
CONTINUOUS
 10
768.7013251131
 20
851.5245157661
 11
844.9543319903
 21
851.5245157661
  0
LINE
  5
3CC
100
AcDbEntity
  8
0
100
AcDbLine
 62
2
  6
CONTINUOUS
 10
848.0793319903
 20
851.5245157661
 11
878.0793319903
 21
851.5245157661
  0
LINE
  5
3CD
100
AcDbEntity
  8
0
100
AcDbLine
 62
2
  6
CONTINUOUS
 10
878.0793319903
 20
851.5245157661
 11
844.9543319903
 21
851.5245157661
  0
INSERT
  5
3CE
100
AcDbEntity
  8
0
100
AcDbBlockReference
 62
2
  6
CONTINUOUS
  2
_FILLED
 10
841.8293319903
 20
851.5245157661
 41
17.5
 42
17.5
 43
17.5
  0
INSERT
  5
3CF
100
AcDbEntity
  8
0
100
AcDbBlockReference
 62
2
  6
CONTINUOUS
  2
_FILLED
 10
848.0793319903
 20
851.5245157661
 41
17.5
 42
17.5
 43
17.5
 50
180.0
  0
ENDBLK
  5
3D0
100
AcDbEntity
  8
0
  6
BYBLOCK
 62
0
100
AcDbBlockEnd
  0
BLOCK
  5
3D1
100
AcDbEntity
  8
0
100
AcDbBlockBegin
 62
2
  6
CONTINUOUS
  2
*D28
 70
65
 10
0.0
 20
0.0
  3
*D28
  1

  0
MTEXT
  5
3D2
100
AcDbEntity
  8
0
100
AcDbMText
 62
5
  6
CONTINUOUS
  7
TEXTSTYLE_2
 71
2
 72
1
 10
701.2043319903
 20
986.5245157661
 30
0.0
 11
0.0
 21
1.0
 31
0.0
 44
0.9
  1
{\Fgdt;n}\Ftxt;200
 40
12.5
 41
46.130952381
  0
LINE
  5
3D3
100
AcDbEntity
  8
0
100
AcDbLine
 62
2
  6
CONTINUOUS
 10
834.3293319903
 20
1086.5245157661
 11
709.3293319903
 21
1086.5245157661
  0
LINE
  5
3D4
100
AcDbEntity
  8
0
100
AcDbLine
 62
2
  6
CONTINUOUS
 10
834.3293319903
 20
886.5245157661
 11
709.3293319903
 21
886.5245157661
  0
LINE
  5
3D5
100
AcDbEntity
  8
0
100
AcDbLine
 62
2
  6
CONTINUOUS
 10
716.8293319903
 20
1086.5245157661
 11
716.8293319903
 21
986.5245157661
  0
LINE
  5
3D6
100
AcDbEntity
  8
0
100
AcDbLine
 62
2
  6
CONTINUOUS
 10
716.8293319903
 20
886.5245157661
 11
716.8293319903
 21
986.5245157661
  0
INSERT
  5
3D7
100
AcDbEntity
  8
0
100
AcDbBlockReference
 62
2
  6
CONTINUOUS
  2
_FILLED
 10
716.8293319903
 20
1086.5245157661
 41
17.5
 42
17.5
 43
17.5
 50
90.0
  0
INSERT
  5
3D8
100
AcDbEntity
  8
0
100
AcDbBlockReference
 62
2
  6
CONTINUOUS
  2
_FILLED
 10
716.8293319903
 20
886.5245157661
 41
17.5
 42
17.5
 43
17.5
 50
270.0
  0
ENDBLK
  5
3D9
100
AcDbEntity
  8
0
  6
BYBLOCK
 62
0
100
AcDbBlockEnd
  0
ENDSEC
  0
SECTION
  2
ENTITIES
  0
DIMENSION
  5
3DA
100
AcDbEntity
  8
ZEICHNUNGSBEMASSUNGEN
100
AcDbDimension
 62
2
  6
CONTINUOUS
  2
*D0
 10
841.8293319903
 20
1231.5245157661
 11
987.1803637448
 21
1240.8995157661
 70
160
 71
2
 42
370.5
  3
DIMSTYLE_1
100
AcDbAlignedDimension
 13
1212.3293319903
 23
1016.5245157661
 14
841.8293319903
 24
983.4942469034
 50
180.0
100
AcDbRotatedDimension
  0
DIMENSION
  5
3DB
100
AcDbEntity
  8
ZEICHNUNGSBEMASSUNGEN
100
AcDbDimension
 62
2
  6
CONTINUOUS
  2
*D1
 10
984.3293319903
 20
1181.5245157661
 11
1030.2757605617
 21
1190.8995157661
 70
160
 71
2
 42
116.0
  3
DIMSTYLE_2
100
AcDbAlignedDimension
 13
1100.3293319903
 23
1069.0245157661
 14
984.3293319903
 24
950.9625395863
 50
180.0
100
AcDbRotatedDimension
  0
DIMENSION
  5
3DC
100
AcDbEntity
  8
0
100
AcDbDimension
 62
2
  6
CONTINUOUS
  2
*D2
 10
387.1959567929
 20
1179.0245157661
 11
281.2026532215
 21
1188.3995157661
 70
160
 71
2
 42
190.0
  1
{\Fgdt;o}<>
  3
DIMSTYLE_3
100
AcDbAlignedDimension
 13
197.1959567929
 23
1064.766862387
 14
387.1959567929
 24
1064.766862387
100
AcDbRotatedDimension
  0
DIMENSION
  5
3DD
100
AcDbEntity
  8
0
100
AcDbDimension
 62
2
  6
CONTINUOUS
  2
*D3
 10
377.2829066183
 20
901.9064859532
 11
427.6533516304
 21
865.035404969
 70
163
 71
1
 42
240.0
  1
<>
  3
DIMSTYLE_4
100
AcDbDiametricDimension
 15
207.1090069675
 25
1071.1425455789
  0
DIMENSION
  5
3DE
100
AcDbEntity
  8
0
100
AcDbDimension
 62
2
  6
CONTINUOUS
  2
*D4
 10
1100.3293319903
 20
1131.5245157661
 11
1047.9861506662
 21
1140.8995157661
 70
160
 71
3
 42
28.0
  3
DIMSTYLE_5
100
AcDbAlignedDimension
 13
1128.3293319903
 23
1069.0245157661
 14
1100.3293319903
 24
1069.0245157661
 50
180.0
100
AcDbRotatedDimension
  0
DIMENSION
  5
3DF
100
AcDbEntity
  8
0
100
AcDbDimension
 62
2
  6
CONTINUOUS
  2
*D5
 10
1387.3293319903
 20
1066.5245157661
 11
1382.821798356
 21
971.4938112063
 70
160
 71
2
 42
160.0
  1
%%c<>
  3
DIMSTYLE_6
100
AcDbAlignedDimension
 13
1102.8293319903
 23
906.5245157661
 14
1102.8293319903
 24
1066.5245157661
 50
90.0
100
AcDbRotatedDimension
  0
LEADER
  5
3E0
100
AcDbEntity
  8
0
100
AcDbLeader
 62
2
  6
CONTINUOUS
  3
STANDARD
 71
1
 72
0
 73
2
 75
0
 76
3
 10
1387.3293319903
 20
906.5245157661
 30
0.0
 10
1387.3293319903
 20
816.5245157661
 30
0.0
 10
1375.0986994308
 20
816.5245157661
 30
0.0
340
3E1
1001
ACAD
1000
DSTYLE
1002
{
1070
77
1070
0
1002
}
  0
INSERT
  5
3E1
102
{ACAD_REACTORS
330
3E0
102
}
100
AcDbEntity
  8
0
100
AcDbBlockReference
 62
2
  6
CONTINUOUS
  2
SYMBOL_64_BL0
 10
1302.5986994308
 20
815.2305619768
  0
INSERT
  5
3E2
100
AcDbEntity
  8
0
100
AcDbBlockReference
 62
2
  6
CONTINUOUS
  2
SYMBOL_38_BL1
 10
1387.3293319903
 20
1097.7745157661
  0
DIMENSION
  5
3E3
100
AcDbEntity
  8
0
100
AcDbDimension
 62
2
  6
CONTINUOUS
  2
*D6
 10
1337.2683838947
 20
946.1838362782
 11
1326.9028254121
 21
979.6396676776
 70
160
 71
2
 42
80.0
  1
%%c<>
  3
DIMSTYLE_7
100
AcDbAlignedDimension
 13
1132.8293319903
 23
1026.5172327223
 14
1132.8293319903
 24
946.5171264116
 50
269.906592694
100
AcDbRotatedDimension
  0
DIMENSION
  5
3E4
100
AcDbEntity
  8
0
100
AcDbDimension
 62
2
  6
CONTINUOUS
  2
*D7
 10
1212.3293319903
 20
1156.5245157661
 11
1161.5079034189
 21
1165.8995157661
 70
160
 71
2
 42
82.0
  3
DIMSTYLE_2
100
AcDbAlignedDimension
 13
1130.3293319903
 23
1029.0245157661
 14
1212.3293319903
 24
1016.5245157661
100
AcDbRotatedDimension
  0
DIMENSION
  5
3E5
100
AcDbEntity
  8
0
100
AcDbDimension
 62
2
  6
CONTINUOUS
  2
*D8
 10
1287.3293319903
 20
1014.0245157661
 11
1285.6889360782
 21
871.3305257396
 70
160
 71
3
 42
55.0
  1
%%c<>
  3
DIMSTYLE_8
100
AcDbAlignedDimension
 13
1214.8293319903
 23
959.0245157661
 14
1214.8293319903
 24
1014.0245157661
 50
90.0
100
AcDbRotatedDimension
  0
LEADER
  5
3E6
100
AcDbEntity
  8
0
100
AcDbLeader
 62
2
  6
CONTINUOUS
  3
STANDARD
 71
1
 72
0
 73
2
 75
0
 76
3
 10
1275.6142024046
 20
1014.0245157661
 30
0.0
 10
1275.8274046703
 20
1181.5245157661
 30
0.0
 10
1288.7010466137
 20
1181.5245157661
 30
0.0
340
3E7
1001
ACAD
1000
DSTYLE
1002
{
1070
77
1070
0
1002
}
  0
INSERT
  5
3E7
102
{ACAD_REACTORS
330
3E6
102
}
100
AcDbEntity
  8
0
100
AcDbBlockReference
 62
2
  6
CONTINUOUS
  2
SYMBOL_47_BL2
 10
1368.7010261439
 20
1180.8015240848
  0
DIMENSION
  5
3E8
100
AcDbEntity
  8
0
100
AcDbDimension
 62
2
  6
CONTINUOUS
  2
*D9
 10
153.1959567929
 20
959.0245157661
 11
143.8209567929
 21
1045.8821485057
 70
160
 71
1
 42
59.0
  3
DIMSTYLE_9
100
AcDbAlignedDimension
 13
281.6959567929
 23
1018.0245157661
 14
281.6959567929
 24
959.0245157661
 50
270.0
100
AcDbRotatedDimension
  0
DIMENSION
  5
3E9
100
AcDbEntity
  8
0
100
AcDbDimension
 62
2
  6
CONTINUOUS
  2
*D10
 10
284.1959567929
 20
1154.0245157661
 11
237.2609005204
 21
1163.3995157661
 70
160
 71
3
 42
16.0
  3
DIMSTYLE_10
100
AcDbAlignedDimension
 13
300.1959567929
 23
1020.5245157661
 14
284.1959567929
 24
1020.5245157661
 50
180.0
100
AcDbRotatedDimension
  0
DIMENSION
  5
3EA
100
AcDbEntity
  8
0
100
AcDbDimension
 62
2
  6
CONTINUOUS
  2
*D11
 10
1206.3293319903
 20
1053.0245157661
 11
1169.7442947373
 21
1062.3995157661
 70
160
 71
3
 42
6.0
  3
DIMSTYLE_11
100
AcDbAlignedDimension
 13
1212.3293319903
 23
1016.5245157661
 14
1206.3293319903
 24
1020.5245157661
 50
180.0
100
AcDbRotatedDimension
  0
DIMENSION
  5
3EB
100
AcDbEntity
  8
0
100
AcDbDimension
 62
2
  6
CONTINUOUS
  2
*D12
 10
1136.3293319903
 20
1091.5245157661
 11
1161.5079034189
 21
1100.8995157661
 70
160
 71
2
 42
70.0
  3
DIMSTYLE_9
100
AcDbAlignedDimension
 13
1206.3293319903
 23
1020.5245157661
 14
1136.3293319903
 24
1020.5245157661
 50
180.0
100
AcDbRotatedDimension
  0
DIMENSION
  5
3EC
100
AcDbEntity
  8
0
100
AcDbDimension
 62
2
  6
CONTINUOUS
  2
*D13
 10
421.2779200231
 20
1125.1524205423
 11
477.8545757478
 21
1081.8340169649
 70
160
 71
1
 42
13.5
  3
DIMSTYLE_10
100
AcDbAlignedDimension
 13
377.6406194052
 23
1062.4232368324
 14
368.400134567
 24
1072.2746350863
 50
135.0
100
AcDbRotatedDimension
  0
DIMENSION
  5
3ED
100
AcDbEntity
  8
ZEICHNUNGSBEMASSUNGEN
100
AcDbDimension
 62
2
  6
CONTINUOUS
  2
*D14
 10
1100.3293319903
 20
1181.5245157661
 11
1144.2757605617
 21
1190.8995157661
 70
160
 71
2
 42
112.0
  3
DIMSTYLE_2
100
AcDbAlignedDimension
 13
1212.3293319903
 23
1016.5245157661
 14
1100.3293319903
 24
1069.0245157661
 50
180.0
100
AcDbRotatedDimension
  0
DIMENSION
  5
3EE
100
AcDbEntity
  8
ZEICHNUNGSBEMASSUNGEN
100
AcDbDimension
 62
2
  6
CONTINUOUS
  2
*D15
 10
1179.4474907627
 20
911.8716921905
 11
1142.4903053227
 21
899.2329281193
 70
162
 71
2
 42
0.0872664272
  3
DIMSTYLE_12
100
AcDb2LineAngularDimension
 13
1179.6809534325
 23
906.5245157661
 14
1125.8293312335
 24
906.5245157661
 15
1135.8007894575
 25
908.0531021808
 16
1172.1296983086
 26
908.8735057912
  0
DIMENSION
  5
3EF
100
AcDbEntity
  8
ZEICHNUNGSBEMASSUNGEN
100
AcDbDimension
 62
2
  6
CONTINUOUS
  2
*D16
 10
1100.3293319903
 20
816.5245157661
 11
1035.3872528769
 21
825.8995157661
 70
160
 71
3
 42
15.0
  3
DIMSTYLE_5
100
AcDbAlignedDimension
 13
1085.3293319903
 23
886.5245157661
 14
1100.3293319903
 24
886.5245157661
100
AcDbRotatedDimension
  0
INSERT
  5
3F0
100
AcDbEntity
  8
0
100
AcDbBlockReference
 62
2
  6
CONTINUOUS
  2
SYMBOL_70_BL3
 10
1131.5793319903
 20
846.6812558272
  0
DIMENSION
  5
3F1
100
AcDbEntity
  8
0
100
AcDbDimension
 62
2
  6
CONTINUOUS
  2
*D17
 10
396.2117321466
 20
959.377352423
 11
479.2966735606
 21
949.4845580789
 70
163
 71
1
 42
215.0
  1
 <>
  3
DIMSTYLE_13
100
AcDbDiametricDimension
 15
188.1801814393
 25
1013.6716791092
  0
DIMENSION
  5
3F2
100
AcDbEntity
  8
ZEICHNUNGSBEMASSUNGEN
100
AcDbDimension
 62
2
  6
CONTINUOUS
  2
*D18
 10
1118.3292536259
 20
1106.5245157661
 11
1046.3348044196
 21
1115.8995157661
 70
160
 71
3
 42
17.9999216356
  3
DIMSTYLE_5
100
AcDbAlignedDimension
 13
1100.3293319903
 23
1069.0245157661
 14
1118.3292536259
 24
1069.0245157661
100
AcDbRotatedDimension
  0
DIMENSION
  5
3F3
100
AcDbEntity
  8
0
100
AcDbDimension
 62
2
  6
CONTINUOUS
  2
*D19
 10
841.8293319903
 20
1116.5245157661
 11
875.1507605617
 21
1125.8995157661
 70
160
 71
2
 42
109.5
  3
DIMSTYLE_2
100
AcDbAlignedDimension
 13
951.3293319903
 23
1099.0245157661
 14
841.8293319903
 24
1099.0245157661
 50
180.0
100
AcDbRotatedDimension
  0
DIMENSION
  5
3F4
100
AcDbEntity
  8
0
100
AcDbDimension
 62
2
  6
CONTINUOUS
  2
*D20
 10
1909.5159869559
 20
1156.5245157661
 11
1787.8530405273
 21
1165.8995157661
 70
160
 71
2
 42
220.0
  1
{\Fgdt;o}<>
  3
DIMSTYLE_1
100
AcDbAlignedDimension
 13
1689.5159869559
 23
1063.9078127805
 14
1909.5159869559
 24
1063.5313920983
100
AcDbRotatedDimension
  0
DIMENSION
  5
3F5
100
AcDbEntity
  8
0
100
AcDbDimension
 62
2
  6
CONTINUOUS
  2
*D21
 10
1699.4405392101
 20
903.5491895632
 11
1658.3640988032
 21
852.445901835
 70
163
 71
3
 42
260.0
  1
<>
  3
DIMSTYLE_14
100
AcDbDiametricDimension
 15
1899.5914347017
 25
1069.499841969
  0
DIMENSION
  5
3F6
100
AcDbEntity
  8
0
100
AcDbDimension
 62
2
  6
CONTINUOUS
  2
*D22
 10
1865.5033108889
 20
889.3035145361
 11
1931.4660473731
 21
808.8122857928
 70
163
 71
1
 42
235.0
  1
<>
  3
DIMSTYLE_14
100
AcDbDiametricDimension
 15
1733.5286630228
 25
1083.745516996
  0
DIMENSION
  5
3F7
100
AcDbEntity
  8
0
100
AcDbDimension
 62
2
  6
CONTINUOUS
  2
*D23
 10
1888.5724887303
 20
1121.5893396105
 11
1742.8550169067
 21
1130.8995157661
 70
160
 71
3
 42
12.0
  1
M<>
  3
DIMSTYLE_5
100
AcDbAlignedDimension
 13
1876.6008404255
 23
1069.9599344344
 14
1888.6008438939
 24
1069.9569139802
 50
0.0314653246
100
AcDbRotatedDimension
  0
DIMENSION
  5
3F8
100
AcDbEntity
  8
0
100
AcDbDimension
 62
2
  6
CONTINUOUS
  2
*D24
 10
766.8293319903
 20
1007.5245157661
 11
765.5890018069
 21
904.3663877511
 70
160
 71
3
 42
42.0
  1
%%c<>
  3
DIMSTYLE_2
100
AcDbAlignedDimension
 13
910.3293319903
 23
965.5245157661
 14
910.3293319903
 24
1007.5245157661
 50
90.0
100
AcDbRotatedDimension
  0
DIMENSION
  5
3F9
100
AcDbEntity
  8
0
100
AcDbDimension
 62
2
  6
CONTINUOUS
  2
*D25
 10
984.3293319903
 20
1181.5245157661
 11
891.6507605617
 21
1190.8995157661
 70
160
 71
2
 42
142.5
  3
DIMSTYLE_1
100
AcDbAlignedDimension
 13
841.8293319903
 23
1099.0245157661
 14
984.3293319903
 24
1099.0245157661
100
AcDbRotatedDimension
  0
DIMENSION
  5
3FA
100
AcDbEntity
  8
0
100
AcDbDimension
 62
2
  6
CONTINUOUS
  2
*D26
 10
961.8293319903
 20
816.5245157661
 11
888.4364748474
 21
825.8995157661
 70
160
 71
2
 42
120.0
  3
DIMSTYLE_2
100
AcDbAlignedDimension
 13
841.8293319903
 23
874.0245157661
 14
961.8293319903
 24
965.0362373785
100
AcDbRotatedDimension
  0
DIMENSION
  5
3FB
100
AcDbEntity
  8
0
100
AcDbDimension
 62
2
  6
CONTINUOUS
  2
*D27
 10
848.0793319903
 20
851.5245157661
 11
750.8441822559
 21
860.8995157661
 70
160
 71
3
 42
6.25
  3
DIMSTYLE_5
100
AcDbAlignedDimension
 13
841.8293319903
 23
929.0245157661
 14
848.0793319903
 24
929.0245157661
100
AcDbRotatedDimension
  0
DIMENSION
  5
3FC
100
AcDbEntity
  8
0
100
AcDbDimension
 62
2
  6
CONTINUOUS
  2
*D28
 10
716.8293319903
 20
886.5245157661
 11
712.6218476525
 21
976.2142863868
 70
160
 71
2
 42
200.0
  1
%%c<>
  3
DIMSTYLE_1
100
AcDbAlignedDimension
 13
834.3293319903
 23
1086.5245157661
 14
834.3293319903
 24
886.5245157661
 50
270.0
100
AcDbRotatedDimension
  0
LEADER
  5
3FD
100
AcDbEntity
  8
0
100
AcDbLeader
 62
2
  6
CONTINUOUS
  3
STANDARD
 71
1
 72
0
 73
0
 75
0
 40
12.5
 41
69.6428571429
 76
3
 10
1130.3293101118
 20
959.0245157661
 30
0.0
 10
1255.3293319903
 20
856.5245157661
 30
0.0
 10
1280.3293319903
 20
856.5245157661
 30
0.0
340
3FE
1001
ACAD
1000
DSTYLE
1002
{
1070
77
1070
0
1002
}
  0
MTEXT
  5
3FE
102
{ACAD_REACTORS
330
3FD
102
}
100
AcDbEntity
  8
0
100
AcDbMText
 62
5
  6
CONTINUOUS
  7
STANDARD
 71
1
 72
1
 10
1280.3293319903
 20
862.7745157661
 30
0.0
 11
1.0
 21
0.0
 31
0.0
 44
0.9
  1
max.R1.5
 40
12.5
 41
69.6428571429
  0
LEADER
  5
3FF
100
AcDbEntity
  8
0
100
AcDbLeader
 62
2
  6
CONTINUOUS
  3
STANDARD
 71
1
 72
0
 73
0
 75
0
 40
12.5
 41
113.6904761905
 76
3
 10
1194.5473215666
 20
1015.5502241585
 30
0.0
 10
1245.8293319903
 20
1231.5245157661
 30
0.0
 10
1270.8293319903
 20
1231.5245157661
 30
0.0
340
400
1001
ACAD
1000
DSTYLE
1002
{
1070
77
1070
0
1070
341
1005
21D
1002
}
  0
MTEXT
  5
400
102
{ACAD_REACTORS
330
3FF
102
}
100
AcDbEntity
  8
0
100
AcDbMText
 62
5
  6
CONTINUOUS
  7
STANDARD
 71
1
 72
1
 10
1270.8293319903
 20
1237.7745157661
 30
0.0
 11
1.0
 21
0.0
 31
0.0
 44
0.9
  1
Key DIN 6885\PA 16x10x70
 40
12.5
 41
113.6904761905
  0
LEADER
  5
401
100
AcDbEntity
  8
0
100
AcDbLeader
 62
2
  6
CONTINUOUS
  3
STANDARD
 71
1
 72
0
 73
0
 75
0
 40
12.5
 41
173.5119047619
 76
4
 10
1212.3293319903
 20
986.5245157661
 30
0.0
 10
1256.1913321597
 20
915.5750121015
 30
0.0
 10
1204.5642386557
 20
791.5245157661
 30
0.0
 10
1179.5642386557
 20
791.5245157661
 30
0.0
340
402
1001
ACAD
1000
DSTYLE
1002
{
1070
77
1070
0
1002
}
  0
MTEXT
  5
402
102
{ACAD_REACTORS
330
401
102
}
100
AcDbEntity
  8
0
100
AcDbMText
 62
5
  6
CONTINUOUS
  7
STANDARD
 71
1
 72
1
 10
1006.0523338938
 20
797.7745157661
 30
0.0
 11
1.0
 21
0.0
 31
0.0
 44
0.9
  1
Centre bore DIN 332\PDR M20x42
 40
12.5
 41
173.5119047619
  0
MTEXT
  5
403
100
AcDbEntity
  8
0
100
AcDbMText
 62
5
  6
CONTINUOUS
  7
STANDARD
 71
1
 72
1
 10
1271.6316382032
 20
913.5935854002
 30
0.0
 11
0.0
 21
1.0
 31
0.0
 44
0.9
  1
k6
 40
12.5
 41
18.75
  0
MTEXT
  5
404
100
AcDbEntity
  8
0
100
AcDbMText
 62
5
  6
CONTINUOUS
  7
STANDARD
 71
1
 72
1
 10
1370.1397390123
 20
1012.1256992559
 30
0.0
 11
0.0
 21
1.0
 31
0.0
 44
0.9
  1
g7
 40
12.5
 41
18.75
  0
MTEXT
  5
405
100
AcDbEntity
  8
0
100
AcDbMText
 62
5
  6
CONTINUOUS
  7
STANDARD
 71
1
 72
1
 10
1343.0399436596
 20
1186.6446539992
 30
0.0
 11
1.0
 21
0.0
 31
0.0
 44
0.9
  1
0,04
 40
12.5
 41
36.6071428571
  0
MTEXT
  5
406
100
AcDbEntity
  8
0
100
AcDbMText
 62
5
  6
CONTINUOUS
  7
STANDARD
 71
1
 72
1
 10
1290.0264162282
 20
821.2089069245
 30
0.0
 11
1.0
 21
0.0
 31
0.0
 44
0.9
  1
0,03
 40
12.5
 41
35.7142857143
  0
MTEXT
  5
407
100
AcDbEntity
  8
0
100
AcDbMText
 62
5
  6
CONTINUOUS
  7
STANDARD
 71
1
 72
1
 10
1406.0198334983
 20
1186.8438994931
 30
0.0
 11
1.0
 21
0.0
 31
0.0
 44
0.9
  1
A
 40
12.5
 41
13.0952380952
  0
MTEXT
  5
408
100
AcDbEntity
  8
0
100
AcDbMText
 62
5
  6
CONTINUOUS
  7
STANDARD
 71
1
 72
1
 10
1431.297065815
 20
1187.0499568925
 30
0.0
 11
1.0
 21
0.0
 31
0.0
 44
0.9
  1
B
 40
12.5
 41
12.2023809524
  0
MTEXT
  5
409
100
AcDbEntity
  8
0
100
AcDbMText
 62
5
  6
CONTINUOUS
  7
STANDARD
 71
1
 72
1
 10
1351.1887731946
 20
821.724640427
 30
0.0
 11
1.0
 21
0.0
 31
0.0
 44
0.9
  1
A
 40
12.5
 41
13.0952380952
  0
MTEXT
  5
40A
100
AcDbEntity
  8
0
100
AcDbMText
 62
5
  6
CONTINUOUS
  7
STANDARD
 71
1
 72
1
 10
1381.9682646551
 20
1117.6362128376
 30
0.0
 11
1.0
 21
0.0
 31
0.0
 44
0.9
  1
B
 40
12.5
 41
12.2023809524
  0
MTEXT
  5
40B
100
AcDbEntity
  8
0
100
AcDbMText
 62
5
  6
CONTINUOUS
  7
STANDARD
 71
1
 72
1
 10
1139.2980600915
 20
852.3941149068
 30
0.0
 11
1.0
 21
0.0
 31
0.0
 44
0.9
  1
A
 40
12.5
 41
13.0952380952
  0
MTEXT
  5
40C
100
AcDbEntity
  8
0
100
AcDbMText
 62
5
  6
CONTINUOUS
  7
STANDARD
 71
1
 72
1
 10
747.4400710766
 20
1016.9208024931
 30
0.0
 11
0.0
 21
1.0
 31
0.0
 44
0.9
  1
(for shaft diam. tol. j6/k6)
 40
12.5
 41
232.1428571429
  0
MTEXT
  5
40D
100
AcDbEntity
  8
0
100
AcDbMText
 62
5
  6
CONTINUOUS
  7
STANDARD
 71
1
 72
1
 10
414.8552736605
 20
974.1468322512
 30
0.0
 11
0.9426414911
 21
-0.3338068592
 31
0.0
 44
0.9
  1
pcd.
 40
12.5
 41
33.0357142857
  0
MTEXT
  5
40E
100
AcDbEntity
  8
0
100
AcDbMText
 62
5
  6
CONTINUOUS
  7
TEXTSTYLE_2
 71
1
 72
1
 10
455.9268379188
 20
1112.3267889839
 30
0.0
 11
0.7071067812
 21
-0.7071067812
 31
0.0
 44
0.9
  1
{\Fgdt;n}
 40
12.5
 41
18.75
  0
MTEXT
  5
40F
100
AcDbEntity
  8
0
100
AcDbMText
 62
5
  6
CONTINUOUS
  7
STANDARD
 71
1
 72
1
 10
1905.9483169192
 20
856.3126559342
 30
0.0
 11
0.5877852523
 21
-0.8090169944
 31
0.0
 44
0.9
  1
pcd.
 40
12.5
 41
33.0357142857
  0
MTEXT
  5
410
100
AcDbEntity
  8
0
100
AcDbMText
 62
5
  6
CONTINUOUS
  7
STANDARD
 71
1
 72
1
 10
1770.6839471871
 20
1137.0676830642
 30
0.0
 11
1.0
 21
0.0
 31
0.0
 44
0.9
  1
x24 deep
 40
12.5
 41
74.1071428571
  0
LINE
  5
411
100
AcDbEntity
  8
0
100
AcDbLine
 62
2
  6
CONTINUOUS
 10
23.966061737
 20
1460.2351977443
 11
23.966061737
 21
25.1757093461
  0
LINE
  5
412
100
AcDbEntity
  8
0
100
AcDbLine
 62
2
  6
CONTINUOUS
 10
23.966061737
 20
25.1757093461
 11
2075.5540400189
 21
25.1757093461
  0
LINE
  5
413
100
AcDbEntity
  8
0
100
AcDbLine
 62
2
  6
CONTINUOUS
 10
2075.5540400189
 20
1460.2351977443
 11
23.966061737
 21
1460.2351977443
  0
LINE
  5
414
100
AcDbEntity
  8
0
100
AcDbLine
 62
2
  6
CONTINUOUS
 10
2075.5540400189
 20
25.1757093461
 11
2075.5540400189
 21
1460.2351977443
  0
LINE
  5
415
100
AcDbEntity
  8
0
100
AcDbLine
 62
7
  6
CONTINUOUS
 10
841.8293319903
 20
1096.5245157661
 11
841.8293319903
 21
876.5245157661
  0
LINE
  5
416
100
AcDbEntity
  8
AUSBLENDEN
100
AcDbLine
 62
2
  6
CENTER
 10
848.0793319903
 20
1086.5245157661
 11
848.0793319903
 21
886.5245157661
  0
LINE
  5
417
100
AcDbEntity
  8
0
100
AcDbLine
 62
7
  6
CONTINUOUS
 10
919.1331795676
 20
957.0245157661
 11
919.1331795676
 21
951.0245157661
  0
LINE
  5
418
100
AcDbEntity
  8
BEZUGSACHSEN
100
AcDbLine
 62
2
  6
CENTER
 10
924.3293319903
 20
954.0245157661
 11
924.3293319903
 21
930.2745157661
  0
LINE
  5
419
100
AcDbEntity
  8
BEZUGSACHSEN
100
AcDbLine
 62
2
  6
CENTER
 10
924.3293319903
 20
954.0245157661
 11
924.3293319903
 21
965.5243809723
  0
LINE
  5
41A
100
AcDbEntity
  8
BEZUGSACHSEN
100
AcDbLine
 62
2
  6
CENTER
 10
924.3293319903
 20
965.5243809723
 11
924.3293319903
 21
977.7745157661
  0
LINE
  5
41B
100
AcDbEntity
  8
0
100
AcDbLine
 62
7
  6
CONTINUOUS
 10
951.3293319903
 20
876.5245157661
 11
841.8293319903
 21
876.5245157661
  0
LINE
  5
41C
100
AcDbEntity
  8
0
100
AcDbLine
 62
7
  6
CONTINUOUS
 10
929.525484413
 20
951.0245157661
 11
929.525484413
 21
957.0245157661
  0
LINE
  5
41D
100
AcDbEntity
  8
FASEN
100
AcDbLine
 62
7
  6
CONTINUOUS
 10
1128.3293291987
 20
907.3994343743
 11
1118.3293284111
 21
906.5245480263
  0
LINE
  5
41E
100
AcDbEntity
  8
AUSBLENDEN
100
AcDbLine
 62
2
  6
CENTER
 10
848.0793319903
 20
886.5245157661
 11
841.8293319903
 21
886.5245157661
  0
LINE
  5
41F
100
AcDbEntity
  8
0
100
AcDbLine
 62
7
  6
CONTINUOUS
 10
1100.3293319903
 20
891.5245157661
 11
1085.3293319903
 21
891.5245157661
  0
LINE
  5
420
100
AcDbEntity
  8
0
100
AcDbLine
 62
7
  6
CONTINUOUS
 10
984.3293319903
 20
891.5245157661
 11
1061.40112876
 21
891.5245157661
  0
LINE
  5
421
100
AcDbEntity
  8
0
100
AcDbLine
 62
7
  6
CONTINUOUS
 10
984.3293319903
 20
891.5745157661
 11
951.3293319903
 21
891.5745157661
  0
LINE
  5
422
100
AcDbEntity
  8
0
100
AcDbLine
 62
7
  6
CONTINUOUS
 10
1068.3293319903
 20
895.5245157661
 11
1085.3293319903
 21
895.5245157661
  0
LINE
  5
423
100
AcDbEntity
  8
0
100
AcDbLine
 62
7
  6
CONTINUOUS
 10
951.3293319903
 20
1096.5245157661
 11
951.3293319903
 21
876.5245157661
  0
LINE
  5
424
100
AcDbEntity
  8
0
100
AcDbLine
 62
7
  6
CONTINUOUS
 10
1100.3293319903
 20
906.5245157661
 11
1118.3293312335
 21
906.5245157661
  0
LINE
  5
425
100
AcDbEntity
  8
0
100
AcDbLine
 62
7
  6
CONTINUOUS
 10
1100.3293319903
 20
913.210124273
 11
1085.3293319903
 21
913.210124273
  0
LINE
  5
426
100
AcDbEntity
  8
0
100
AcDbLine
 62
7
  6
CONTINUOUS
 10
981.0950935874
 20
913.2271761145
 11
951.3293319903
 21
913.2271761145
  0
LINE
  5
427
100
AcDbEntity
  8
0
100
AcDbLine
 62
7
  6
CONTINUOUS
 10
919.1331795676
 20
951.0245157661
 11
924.3293319903
 21
948.0245157661
  0
LINE
  5
428
100
AcDbEntity
  8
0
100
AcDbLine
 62
7
  6
CONTINUOUS
 10
929.525484413
 20
957.0245157661
 11
924.3293319903
 21
960.0245157661
  0
LINE
  5
429
100
AcDbEntity
  8
ANSICHT_3D
100
AcDbLine
 62
2
  6
CENTER
 10
961.8293319903
 20
965.5379128966
 11
961.7293319903
 21
1007.5245157661
  0
LINE
  5
42A
100
AcDbEntity
  8
0
100
AcDbLine
 62
7
  6
CONTINUOUS
 10
951.3293319903
 20
917.2424834633
 11
841.8293319903
 21
917.2424834633
  0
LINE
  5
42B
100
AcDbEntity
  8
0
100
AcDbLine
 62
7
  6
CONTINUOUS
 10
984.3293319903
 20
929.6959138125
 11
1007.6395616775
 21
929.6959138125
  0
LINE
  5
42C
100
AcDbEntity
  8
0
100
AcDbLine
 62
7
  6
CONTINUOUS
 10
981.0950935874
 20
1081.4745157661
 11
981.0950935874
 21
1059.8218554177
  0
LINE
  5
42D
100
AcDbEntity
  8
0
100
AcDbLine
 62
7
  6
CONTINUOUS
 10
981.0950935874
 20
913.2271761145
 11
981.0950935874
 21
891.5745157661
  0
LINE
  5
42E
100
AcDbEntity
  8
0
100
AcDbLine
 62
7
  6
CONTINUOUS
 10
984.3293319903
 20
891.5245157661
 11
984.3293319903
 21
1081.5245157661
  0
LINE
  5
42F
100
AcDbEntity
  8
0
100
AcDbLine
 62
7
  6
CONTINUOUS
 10
924.3293319903
 20
960.0245157661
 11
919.1331795676
 21
957.0245157661
  0
LINE
  5
430
100
AcDbEntity
  8
0
100
AcDbLine
 62
7
  6
CONTINUOUS
 10
1128.3293319903
 20
946.5245157661
 11
1130.3293319903
 21
946.5245157661
  0
LINE
  5
431
100
AcDbEntity
  8
BEZUGSACHSEN
100
AcDbLine
 62
2
  6
CENTER
 10
924.3293319903
 20
954.0245157661
 11
908.8209303015
 21
954.0245157661
  0
LINE
  5
432
100
AcDbEntity
  8
BEZUGSACHSEN
100
AcDbLine
 62
2
  6
CENTER
 10
908.8209303015
 20
954.0245157661
 11
900.5793319903
 21
954.0245157661
  0
LINE
  5
433
100
AcDbEntity
  8
BEZUGSACHSEN
100
AcDbLine
 62
2
  6
CENTER
 10
924.3293319903
 20
954.0245157661
 11
948.0793319903
 21
954.0245157661
  0
LINE
  5
434
100
AcDbEntity
  8
0
100
AcDbLine
 62
7
  6
CONTINUOUS
 10
1130.3293319903
 20
959.0245157661
 11
1212.3293319903
 21
959.0245157661
  0
LINE
  5
435
100
AcDbEntity
  8
0
100
AcDbLine
 62
7
  6
CONTINUOUS
 10
1007.6395616775
 20
1081.5245157661
 11
1007.6395616775
 21
1043.3531177197
  0
LINE
  5
436
100
AcDbEntity
  8
0
100
AcDbLine
 62
7
  6
CONTINUOUS
 10
1007.6395616775
 20
891.5245157661
 11
1007.6395616775
 21
929.6959138125
  0
LINE
  5
437
100
AcDbEntity
  8
0
100
AcDbLine
 62
7
  6
CONTINUOUS
 10
924.3293319903
 20
948.0245157661
 11
929.525484413
 21
951.0245157661
  0
LINE
  5
438
100
AcDbEntity
  8
ANSICHT_3D
100
AcDbLine
 62
2
  6
CENTER
 10
912.8293319903
 20
965.5379128966
 11
961.8293319903
 21
965.5379128966
  0
LINE
  5
439
100
AcDbEntity
  8
TEIL_STARTBEZUEGE
100
AcDbLine
 62
2
  6
CENTER
 10
1222.3293319903
 20
986.5245157661
 11
831.8293319903
 21
986.5245157661
  0
LINE
  5
43A
100
AcDbEntity
  8
0
100
AcDbLine
 62
7
  6
CONTINUOUS
 10
1039.8293319903
 20
891.5245157661
 11
1039.8293319903
 21
1081.5245157661
  0
LINE
  5
43B
100
AcDbEntity
  8
ANSICHT_3D
100
AcDbLine
 62
2
  6
CENTER
 10
961.7293319903
 20
1007.5245157661
 11
912.8293319903
 21
1007.5245157661
  0
LINE
  5
43C
100
AcDbEntity
  8
0
100
AcDbLine
 62
7
  6
CONTINUOUS
 10
1144.3293319903
 20
1012.8351599999
 11
1198.3293319903
 21
1012.8351599999
  0
LINE
  5
43D
100
AcDbEntity
  8
0
100
AcDbLine
 62
7
  6
CONTINUOUS
 10
1130.3293319903
 20
1014.0245157661
 11
1136.373598666
 21
1014.0245157661
  0
LINE
  5
43E
100
AcDbEntity
  8
0
100
AcDbLine
 62
7
  6
CONTINUOUS
 10
1206.2850653146
 20
1014.0245157661
 11
1212.3293319903
 21
1014.0245157661
  0
LINE
  5
43F
100
AcDbEntity
  8
0
100
AcDbLine
 62
7
  6
CONTINUOUS
 10
1061.40112876
 20
891.5245157661
 11
1061.40112876
 21
1081.5245157661
  0
LINE
  5
440
100
AcDbEntity
  8
0
100
AcDbLine
 62
7
  6
CONTINUOUS
 10
1068.3293319903
 20
895.5245157661
 11
1068.3293319903
 21
1077.5245157661
  0
LINE
  5
441
100
AcDbEntity
  8
0
100
AcDbLine
 62
7
  6
CONTINUOUS
 10
1136.3293319903
 20
1018.0245157661
 11
1206.3293319903
 21
1018.0245157661
  0
LINE
  5
442
100
AcDbEntity
  8
0
100
AcDbLine
 62
7
  6
CONTINUOUS
 10
1128.3293319903
 20
1026.5245157661
 11
1130.3293319903
 21
1026.5245157661
  0
LINE
  5
443
100
AcDbEntity
  8
0
100
AcDbLine
 62
7
  6
CONTINUOUS
 10
1085.3293319903
 20
891.5245157661
 11
1085.3293319903
 21
1081.5245157661
  0
LINE
  5
444
100
AcDbEntity
  8
0
100
AcDbLine
 62
7
  6
CONTINUOUS
 10
984.3293319903
 20
1043.3531177197
 11
1007.6395616775
 21
1043.3531177197
  0
LINE
  5
445
100
AcDbEntity
  8
0
100
AcDbLine
 62
7
  6
CONTINUOUS
 10
1100.3293319903
 20
891.5245157661
 11
1100.3293319903
 21
1081.5245157661
  0
LINE
  5
446
100
AcDbEntity
  8
0
100
AcDbLine
 62
7
  6
CONTINUOUS
 10
951.3293319903
 20
1055.8065480688
 11
841.8293319903
 21
1055.8065480688
  0
LINE
  5
447
100
AcDbEntity
  8
0
100
AcDbLine
 62
7
  6
CONTINUOUS
 10
981.0950935874
 20
1059.8218554177
 11
951.3293319903
 21
1059.8218554177
  0
LINE
  5
448
100
AcDbEntity
  8
0
100
AcDbLine
 62
7
  6
CONTINUOUS
 10
1100.3293319903
 20
1059.8389072591
 11
1085.3293319903
 21
1059.8389072591
  0
LINE
  5
449
100
AcDbEntity
  8
0
100
AcDbLine
 62
7
  6
CONTINUOUS
 10
1100.3293319903
 20
1066.5245157661
 11
1118.3293312335
 21
1066.5245157661
  0
LINE
  5
44A
100
AcDbEntity
  8
FASEN
100
AcDbLine
 62
7
  6
CONTINUOUS
 10
1128.3293291987
 20
1065.6495971579
 11
1118.3293284111
 21
1066.5244835058
  0
LINE
  5
44B
100
AcDbEntity
  8
FASEN
100
AcDbLine
 62
7
  6
CONTINUOUS
 10
1118.3293312335
 20
1066.5245157661
 11
1118.3293312335
 21
906.5245157661
  0
LINE
  5
44C
100
AcDbEntity
  8
FASEN
100
AcDbLine
 62
7
  6
CONTINUOUS
 10
1128.3293319903
 20
1065.6496290653
 11
1128.3293319903
 21
907.3994024668
  0
LINE
  5
44D
100
AcDbEntity
  8
0
100
AcDbLine
 62
7
  6
CONTINUOUS
 10
1130.3293319903
 20
1026.5238166217
 11
1130.3293319903
 21
946.5252149105
  0
LINE
  5
44E
100
AcDbEntity
  8
0
100
AcDbLine
 62
7
  6
CONTINUOUS
 10
1061.40112876
 20
891.5245157661
 11
1068.3293319903
 21
895.5245157661
  0
LINE
  5
44F
100
AcDbEntity
  8
0
100
AcDbLine
 62
7
  6
CONTINUOUS
 10
1068.3293319903
 20
1077.5245157661
 11
1085.3293319903
 21
1077.5245157661
  0
LINE
  5
450
100
AcDbEntity
  8
0
100
AcDbLine
 62
7
  6
CONTINUOUS
 10
951.3293319903
 20
1081.4745157661
 11
984.3293319903
 21
1081.4745157661
  0
LINE
  5
451
100
AcDbEntity
  8
0
100
AcDbLine
 62
7
  6
CONTINUOUS
 10
1100.3293319903
 20
1081.5245157661
 11
1085.3293319903
 21
1081.5245157661
  0
LINE
  5
452
100
AcDbEntity
  8
0
100
AcDbLine
 62
7
  6
CONTINUOUS
 10
984.3293319903
 20
1081.5245157661
 11
1061.40112876
 21
1081.5245157661
  0
LINE
  5
453
100
AcDbEntity
  8
AUSBLENDEN
100
AcDbLine
 62
2
  6
CENTER
 10
841.8293319903
 20
1086.5245157661
 11
848.0793319903
 21
1086.5245157661
  0
LINE
  5
454
100
AcDbEntity
  8
0
100
AcDbLine
 62
7
  6
CONTINUOUS
 10
1061.40112876
 20
1081.5245157661
 11
1068.3293319903
 21
1077.5245157661
  0
LINE
  5
455
100
AcDbEntity
  8
0
100
AcDbLine
 62
7
  6
CONTINUOUS
 10
1136.3293319903
 20
1014.0116708176
 11
1136.3293319903
 21
1018.0245157661
  0
LINE
  5
456
100
AcDbEntity
  8
0
100
AcDbLine
 62
9
  6
CONTINUOUS
 10
1144.3293319903
 20
1012.8351599999
 11
1144.3293319903
 21
1018.0245157661
  0
LINE
  5
457
100
AcDbEntity
  8
0
100
AcDbLine
 62
7
  6
CONTINUOUS
 10
951.3293319903
 20
1096.5245157661
 11
841.8293319903
 21
1096.5245157661
  0
LINE
  5
458
100
AcDbEntity
  8
0
100
AcDbLine
 62
9
  6
CONTINUOUS
 10
1198.3293319903
 20
1012.8351599999
 11
1198.3293319903
 21
1018.0245157661
  0
LINE
  5
459
100
AcDbEntity
  8
0
100
AcDbLine
 62
7
  6
CONTINUOUS
 10
1206.3293319903
 20
1014.0116708176
 11
1206.3293319903
 21
1018.0245157661
  0
LINE
  5
45A
100
AcDbEntity
  8
0
100
AcDbLine
 62
7
  6
CONTINUOUS
 10
1212.3293319903
 20
1014.0237661968
 11
1212.3293319903
 21
959.0252653354
  0
LINE
  5
45B
100
AcDbEntity
  8
0
100
AcDbLine
 62
7
  6
CONTINUOUS
 10
182.1959567929
 20
1055.8065480688
 11
182.1959567929
 21
917.2424834633
  0
LINE
  5
45C
100
AcDbEntity
  8
0
100
AcDbLine
 62
7
  6
CONTINUOUS
 10
222.9139244902
 20
876.5245157661
 11
361.4779890957
 21
876.5245157661
  0
LINE
  5
45D
100
AcDbEntity
  8
0
100
AcDbLine
 62
7
  6
CONTINUOUS
 10
197.1959567929
 20
1059.8389072591
 11
197.1959567929
 21
913.210124273
  0
LINE
  5
45E
100
AcDbEntity
  8
0
100
AcDbLine
 62
7
  6
CONTINUOUS
 10
218.8815652998
 20
891.5245157661
 11
365.510348286
 21
891.5245157661
  0
LINE
  5
45F
100
AcDbEntity
  8
0
100
AcDbLine
 62
7
  6
CONTINUOUS
 10
284.1959567929
 20
1012.8351599999
 11
284.1959567929
 21
1018.0245157661
  0
LINE
  5
460
100
AcDbEntity
  8
TEIL_STARTBEZUEGE
100
AcDbLine
 62
2
  6
CENTER
 10
292.1959567929
 20
881.5245157661
 11
292.1959567929
 21
1091.5245157661
  0
LINE
  5
461
100
AcDbEntity
  8
0
100
AcDbLine
 62
7
  6
CONTINUOUS
 10
363.4723203365
 20
1067.3468208557
 11
363.4369649975
 21
1067.3114655166
  0
LINE
  5
462
100
AcDbEntity
  8
0
100
AcDbLine
 62
7
  6
CONTINUOUS
 10
211.4090070424
 20
915.2835075615
 11
211.3736517033
 21
915.2481522225
  0
LINE
  5
463
100
AcDbEntity
  8
TEIL_STARTBEZUEGE
100
AcDbLine
 62
2
  6
CENTER
 10
397.1959567929
 20
986.5245157661
 11
187.1959567929
 21
986.5245157661
  0
LINE
  5
464
100
AcDbEntity
  8
0
100
AcDbLine
 62
7
  6
CONTINUOUS
 10
211.3736517033
 20
1057.8008793097
 11
211.4090070424
 21
1057.7655239706
  0
LINE
  5
465
100
AcDbEntity
  8
0
100
AcDbLine
 62
7
  6
CONTINUOUS
 10
363.4369649975
 20
905.7375660155
 11
363.4723203365
 21
905.7022106764
  0
LINE
  5
466
100
AcDbEntity
  8
0
100
AcDbLine
 62
7
  6
CONTINUOUS
 10
300.1959567929
 20
1012.8351599999
 11
300.1959567929
 21
1018.0245157661
  0
LINE
  5
467
100
AcDbEntity
  8
0
100
AcDbLine
 62
7
  6
CONTINUOUS
 10
220.9195932493
 20
905.7022106765
 11
220.9549485884
 21
905.7375660155
  0
LINE
  5
468
100
AcDbEntity
  8
0
100
AcDbLine
 62
7
  6
CONTINUOUS
 10
372.9829065435
 20
1057.7655239706
 11
373.0182618825
 21
1057.8008793097
  0
LINE
  5
469
100
AcDbEntity
  8
0
100
AcDbLine
 62
7
  6
CONTINUOUS
 10
373.0182618825
 20
915.2481522225
 11
372.9829065435
 21
915.2835075615
  0
LINE
  5
46A
100
AcDbEntity
  8
0
100
AcDbLine
 62
7
  6
CONTINUOUS
 10
220.9549485884
 20
1067.3114655166
 11
220.9195932493
 21
1067.3468208557
  0
LINE
  5
46B
100
AcDbEntity
  8
0
100
AcDbLine
 62
7
  6
CONTINUOUS
 10
284.1959567929
 20
1018.0245157661
 11
300.1959567929
 21
1018.0245157661
  0
LINE
  5
46C
100
AcDbEntity
  8
0
100
AcDbLine
 62
7
  6
CONTINUOUS
 10
387.1959567929
 20
913.210124273
 11
387.1959567929
 21
1059.8389072591
  0
LINE
  5
46D
100
AcDbEntity
  8
0
100
AcDbLine
 62
7
  6
CONTINUOUS
 10
365.510348286
 20
1081.5245157661
 11
218.8815652998
 21
1081.5245157661
  0
LINE
  5
46E
100
AcDbEntity
  8
0
100
AcDbLine
 62
7
  6
CONTINUOUS
 10
402.1959567929
 20
917.2424834633
 11
402.1959567929
 21
1055.8065480688
  0
LINE
  5
46F
100
AcDbEntity
  8
0
100
AcDbLine
 62
7
  6
CONTINUOUS
 10
361.4779890957
 20
1096.5245157661
 11
222.9139244902
 21
1096.5245157661
  0
LINE
  5
470
100
AcDbEntity
  8
0
100
AcDbLine
 62
7
  6
CONTINUOUS
 10
1689.5159869559
 20
917.2424834633
 11
1689.5159869559
 21
1055.8065480688
  0
LINE
  5
471
100
AcDbEntity
  8
0
100
AcDbLine
 62
7
  6
CONTINUOUS
 10
1868.7980192586
 20
876.5245157661
 11
1730.2339546531
 21
876.5245157661
  0
LINE
  5
472
100
AcDbEntity
  8
0
100
AcDbLine
 62
7
  6
CONTINUOUS
 10
1741.0111904481
 20
1074.6980242835
 11
1737.0101530826
 21
1072.3880242835
  0
LINE
  5
473
100
AcDbEntity
  8
0
100
AcDbLine
 62
7
  6
CONTINUOUS
 10
1711.3424784384
 20
928.0197192583
 11
1713.6524784384
 21
924.0186818928
  0
LINE
  5
474
100
AcDbEntity
  8
0
100
AcDbLine
 62
7
  6
CONTINUOUS
 10
1741.0111904481
 20
1065.4580242835
 11
1745.0122278136
 21
1067.7680242835
  0
LINE
  5
475
100
AcDbEntity
  8
0
100
AcDbLine
 62
7
  6
CONTINUOUS
 10
1720.5824784384
 20
928.0197192583
 11
1718.2724784384
 21
932.0207566237
  0
LINE
  5
476
100
AcDbEntity
  8
BEZUGSACHSEN
100
AcDbLine
 62
2
  6
CENTER
 10
1715.9624784384
 20
928.0197192583
 11
1715.9624784384
 21
907.5197192583
  0
LINE
  5
477
100
AcDbEntity
  8
BEZUGSACHSEN
100
AcDbLine
 62
2
  6
CENTER
 10
1715.9624784384
 20
928.0197192583
 11
1715.9624784384
 21
948.5197192583
  0
LINE
  5
478
100
AcDbEntity
  8
BEZUGSACHSEN
100
AcDbLine
 62
2
  6
CENTER
 10
1716.4309401665
 20
1069.6095625555
 11
1716.4309401665
 21
1049.5095625555
  0
LINE
  5
479
100
AcDbEntity
  8
BEZUGSACHSEN
100
AcDbLine
 62
2
  6
CENTER
 10
1716.4309401665
 20
903.4394689767
 11
1716.4309401665
 21
883.3394689767
  0
LINE
  5
47A
100
AcDbEntity
  8
BEZUGSACHSEN
100
AcDbLine
 62
2
  6
CENTER
 10
1716.4309401665
 20
903.4394689767
 11
1716.4309401665
 21
923.5394689767
  0
LINE
  5
47B
100
AcDbEntity
  8
BEZUGSACHSEN
100
AcDbLine
 62
2
  6
CENTER
 10
1716.4309401665
 20
1069.6095625555
 11
1716.4309401665
 21
1089.7095625555
  0
LINE
  5
47C
100
AcDbEntity
  8
BEZUGSACHSEN
100
AcDbLine
 62
2
  6
CENTER
 10
1858.0207834637
 20
902.9710072486
 11
1837.5207834637
 21
902.9710072486
  0
LINE
  5
47D
100
AcDbEntity
  8
BEZUGSACHSEN
100
AcDbLine
 62
2
  6
CENTER
 10
1858.0207834637
 20
902.9710072486
 11
1878.5207834637
 21
902.9710072486
  0
LINE
  5
47E
100
AcDbEntity
  8
BEZUGSACHSEN
100
AcDbLine
 62
2
  6
CENTER
 10
1882.6010337453
 20
903.4394689767
 11
1862.5010337453
 21
903.4394689767
  0
LINE
  5
47F
100
AcDbEntity
  8
BEZUGSACHSEN
100
AcDbLine
 62
2
  6
CENTER
 10
1716.4309401665
 20
903.4394689767
 11
1696.3309401665
 21
903.4394689767
  0
LINE
  5
480
100
AcDbEntity
  8
BEZUGSACHSEN
100
AcDbLine
 62
2
  6
CENTER
 10
1716.4309401665
 20
903.4394689767
 11
1736.5309401665
 21
903.4394689767
  0
LINE
  5
481
100
AcDbEntity
  8
BEZUGSACHSEN
100
AcDbLine
 62
2
  6
CENTER
 10
1882.6010337453
 20
903.4394689767
 11
1902.7010337453
 21
903.4394689767
  0
LINE
  5
482
100
AcDbEntity
  8
0
100
AcDbLine
 62
7
  6
CONTINUOUS
 10
1737.0101530826
 20
1072.3880242835
 11
1737.0101530826
 21
1067.7680242835
  0
LINE
  5
483
100
AcDbEntity
  8
BEZUGSACHSEN
100
AcDbLine
 62
2
  6
CENTER
 10
1741.0111904481
 20
1070.0780242835
 11
1741.0111904481
 21
1049.5780242835
  0
LINE
  5
484
100
AcDbEntity
  8
BEZUGSACHSEN
100
AcDbLine
 62
2
  6
CENTER
 10
1741.0111904481
 20
1070.0780242835
 11
1741.0111904481
 21
1090.5780242835
  0
LINE
  5
485
100
AcDbEntity
  8
0
100
AcDbLine
 62
7
  6
CONTINUOUS
 10
1745.0122278136
 20
1067.7680242835
 11
1745.0122278136
 21
1072.3880242835
  0
LINE
  5
486
100
AcDbEntity
  8
0
100
AcDbLine
 62
7
  6
CONTINUOUS
 10
1713.6524784384
 20
924.0186818928
 11
1718.2724784384
 21
924.0186818928
  0
LINE
  5
487
100
AcDbEntity
  8
BEZUGSACHSEN
100
AcDbLine
 62
2
  6
CENTER
 10
1715.9624784384
 20
928.0197192583
 11
1695.4624784384
 21
928.0197192583
  0
LINE
  5
488
100
AcDbEntity
  8
BEZUGSACHSEN
100
AcDbLine
 62
2
  6
CENTER
 10
1715.9624784384
 20
928.0197192583
 11
1736.4624784384
 21
928.0197192583
  0
LINE
  5
489
100
AcDbEntity
  8
0
100
AcDbLine
 62
7
  6
CONTINUOUS
 10
1718.2724784384
 20
932.0207566237
 11
1713.6524784384
 21
932.0207566237
  0
LINE
  5
48A
100
AcDbEntity
  8
0
100
AcDbLine
 62
7
  6
CONTINUOUS
 10
1713.6524784384
 20
932.0207566237
 11
1711.3424784384
 21
928.0197192583
  0
LINE
  5
48B
100
AcDbEntity
  8
0
100
AcDbLine
 62
7
  6
CONTINUOUS
 10
1854.0197460982
 20
900.6610072486
 11
1858.0207834637
 21
898.3510072486
  0
LINE
  5
48C
100
AcDbEntity
  8
0
100
AcDbLine
 62
7
  6
CONTINUOUS
 10
1718.2724784384
 20
924.0186818928
 11
1720.5824784384
 21
928.0197192583
  0
LINE
  5
48D
100
AcDbEntity
  8
BEZUGSACHSEN
100
AcDbLine
 62
7
  6
CONTINUOUS
 10
1813.6079143861
 20
946.0245157661
 11
1821.7159869559
 21
946.0245157661
  0
LINE
  5
48E
100
AcDbEntity
  8
0
100
AcDbLine
 62
7
  6
CONTINUOUS
 10
1862.0218208292
 20
905.2810072486
 11
1858.0207834637
 21
907.5910072486
  0
LINE
  5
48F
100
AcDbEntity
  8
0
100
AcDbLine
 62
7
  6
CONTINUOUS
 10
1798.7659869559
 20
962.5362373785
 11
1798.7659869559
 21
943.5310569613
  0
LINE
  5
490
100
AcDbEntity
  8
0
100
AcDbLine
 62
7
  6
CONTINUOUS
 10
1798.7659869559
 20
962.5862618615
 11
1798.7659869559
 21
965.5379128966
  0
LINE
  5
491
100
AcDbEntity
  8
TEIL_STARTBEZUEGE
100
AcDbLine
 62
2
  6
CENTER
 10
1799.5159869559
 20
866.5245157661
 11
1799.5159869559
 21
1106.5245157661
  0
LINE
  5
492
100
AcDbEntity
  8
0
100
AcDbLine
 62
7
  6
CONTINUOUS
 10
1800.2659869559
 20
965.5379128966
 11
1800.2659869559
 21
962.5862618615
  0
LINE
  5
493
100
AcDbEntity
  8
0
100
AcDbLine
 62
7
  6
CONTINUOUS
 10
1800.2659869559
 20
943.5310569613
 11
1800.2659869559
 21
962.5362373785
  0
LINE
  5
494
100
AcDbEntity
  8
TEIL_STARTBEZUEGE
100
AcDbLine
 62
2
  6
CENTER
 10
1679.5159869559
 20
986.5245157661
 11
1919.5159869559
 21
986.5245157661
  0
LINE
  5
495
100
AcDbEntity
  8
BEZUGSACHSEN
100
AcDbLine
 62
7
  6
CONTINUOUS
 10
1821.7159869559
 20
949.7407957542
 11
1821.7159869559
 21
946.0257547845
  0
LINE
  5
496
100
AcDbEntity
  8
0
100
AcDbLine
 62
7
  6
CONTINUOUS
 10
1880.7594954734
 20
1049.0303496394
 11
1878.4494954734
 21
1045.0293122739
  0
LINE
  5
497
100
AcDbEntity
  8
0
100
AcDbLine
 62
7
  6
CONTINUOUS
 10
1737.0101530826
 20
1067.7680242835
 11
1741.0111904481
 21
1065.4580242835
  0
LINE
  5
498
100
AcDbEntity
  8
0
100
AcDbLine
 62
7
  6
CONTINUOUS
 10
1854.0197460982
 20
905.2810072486
 11
1854.0197460982
 21
900.6610072486
  0
LINE
  5
499
100
AcDbEntity
  8
0
100
AcDbLine
 62
7
  6
CONTINUOUS
 10
1885.3794954734
 20
1041.0282749084
 11
1887.6894954734
 21
1045.0293122739
  0
LINE
  5
49A
100
AcDbEntity
  8
0
100
AcDbLine
 62
7
  6
CONTINUOUS
 10
1880.7594954734
 20
1041.0282749084
 11
1885.3794954734
 21
1041.0282749084
  0
LINE
  5
49B
100
AcDbEntity
  8
0
100
AcDbLine
 62
7
  6
CONTINUOUS
 10
1745.0122278136
 20
1072.3880242835
 11
1741.0111904481
 21
1074.6980242835
  0
LINE
  5
49C
100
AcDbEntity
  8
BEZUGSACHSEN
100
AcDbLine
 62
2
  6
CENTER
 10
1858.0207834637
 20
902.9710072486
 11
1858.0207834637
 21
882.4710072486
  0
LINE
  5
49D
100
AcDbEntity
  8
BEZUGSACHSEN
100
AcDbLine
 62
2
  6
CENTER
 10
1858.0207834637
 20
902.9710072486
 11
1858.0207834637
 21
923.4710072486
  0
LINE
  5
49E
100
AcDbEntity
  8
0
100
AcDbLine
 62
7
  6
CONTINUOUS
 10
1862.0218208292
 20
900.6610072486
 11
1862.0218208292
 21
905.2810072486
  0
LINE
  5
49F
100
AcDbEntity
  8
BEZUGSACHSEN
100
AcDbLine
 62
2
  6
CENTER
 10
1883.0694954734
 20
1045.0293122739
 11
1862.5694954734
 21
1045.0293122739
  0
LINE
  5
4A0
100
AcDbEntity
  8
BEZUGSACHSEN
100
AcDbLine
 62
2
  6
CENTER
 10
1883.0694954734
 20
1045.0293122739
 11
1903.5694954734
 21
1045.0293122739
  0
LINE
  5
4A1
100
AcDbEntity
  8
0
100
AcDbLine
 62
7
  6
CONTINUOUS
 10
1885.3794954734
 20
1049.0303496394
 11
1880.7594954734
 21
1049.0303496394
  0
LINE
  5
4A2
100
AcDbEntity
  8
BEZUGSACHSEN
100
AcDbLine
 62
2
  6
CENTER
 10
1882.6010337453
 20
1069.6095625555
 11
1882.6010337453
 21
1049.5095625555
  0
LINE
  5
4A3
100
AcDbEntity
  8
BEZUGSACHSEN
100
AcDbLine
 62
2
  6
CENTER
 10
1882.6010337453
 20
903.4394689767
 11
1882.6010337453
 21
883.3394689767
  0
LINE
  5
4A4
100
AcDbEntity
  8
BEZUGSACHSEN
100
AcDbLine
 62
2
  6
CENTER
 10
1882.6010337453
 20
903.4394689767
 11
1882.6010337453
 21
923.5394689767
  0
LINE
  5
4A5
100
AcDbEntity
  8
BEZUGSACHSEN
100
AcDbLine
 62
2
  6
CENTER
 10
1882.6010337453
 20
1069.6095625555
 11
1882.6010337453
 21
1089.7095625555
  0
LINE
  5
4A6
100
AcDbEntity
  8
BEZUGSACHSEN
100
AcDbLine
 62
2
  6
CENTER
 10
1883.0694954734
 20
1045.0293122739
 11
1883.0694954734
 21
1024.5293122739
  0
LINE
  5
4A7
100
AcDbEntity
  8
BEZUGSACHSEN
100
AcDbLine
 62
2
  6
CENTER
 10
1883.0694954734
 20
1045.0293122739
 11
1883.0694954734
 21
1065.5293122739
  0
LINE
  5
4A8
100
AcDbEntity
  8
BEZUGSACHSEN
100
AcDbLine
 62
2
  6
CENTER
 10
1882.6010337453
 20
1069.6095625555
 11
1862.5010337453
 21
1069.6095625555
  0
LINE
  5
4A9
100
AcDbEntity
  8
BEZUGSACHSEN
100
AcDbLine
 62
2
  6
CENTER
 10
1716.4309401665
 20
1069.6095625555
 11
1696.3309401665
 21
1069.6095625555
  0
LINE
  5
4AA
100
AcDbEntity
  8
BEZUGSACHSEN
100
AcDbLine
 62
2
  6
CENTER
 10
1716.4309401665
 20
1069.6095625555
 11
1736.5309401665
 21
1069.6095625555
  0
LINE
  5
4AB
100
AcDbEntity
  8
BEZUGSACHSEN
100
AcDbLine
 62
2
  6
CENTER
 10
1882.6010337453
 20
1069.6095625555
 11
1902.7010337453
 21
1069.6095625555
  0
LINE
  5
4AC
100
AcDbEntity
  8
BEZUGSACHSEN
100
AcDbLine
 62
2
  6
CENTER
 10
1741.0111904481
 20
1070.0780242835
 11
1720.5111904481
 21
1070.0780242835
  0
LINE
  5
4AD
100
AcDbEntity
  8
BEZUGSACHSEN
100
AcDbLine
 62
2
  6
CENTER
 10
1741.0111904481
 20
1070.0780242835
 11
1761.5111904481
 21
1070.0780242835
  0
LINE
  5
4AE
100
AcDbEntity
  8
0
100
AcDbLine
 62
7
  6
CONTINUOUS
 10
1858.0207834637
 20
907.5910072486
 11
1854.0197460982
 21
905.2810072486
  0
LINE
  5
4AF
100
AcDbEntity
  8
0
100
AcDbLine
 62
7
  6
CONTINUOUS
 10
1878.4494954734
 20
1045.0293122739
 11
1880.7594954734
 21
1041.0282749084
  0
LINE
  5
4B0
100
AcDbEntity
  8
0
100
AcDbLine
 62
7
  6
CONTINUOUS
 10
1909.5159869559
 20
1055.8065480688
 11
1909.5159869559
 21
917.2424834633
  0
LINE
  5
4B1
100
AcDbEntity
  8
0
100
AcDbLine
 62
7
  6
CONTINUOUS
 10
1858.0207834637
 20
898.3510072486
 11
1862.0218208292
 21
900.6610072486
  0
LINE
  5
4B2
100
AcDbEntity
  8
0
100
AcDbLine
 62
7
  6
CONTINUOUS
 10
1730.2339546531
 20
1096.5245157661
 11
1868.7980192586
 21
1096.5245157661
  0
LINE
  5
4B3
100
AcDbEntity
  8
0
100
AcDbLine
 62
7
  6
CONTINUOUS
 10
1887.6894954734
 20
1045.0293122739
 11
1885.3794954734
 21
1049.0303496394
  0
CIRCLE
  5
4B4
100
AcDbEntity
  8
BEZUGSACHSEN
100
AcDbCircle
 62
7
  6
CONTINUOUS
 10
924.3293319903
 20
954.0245157661
 40
8.75
  0
ARC
  5
4B5
100
AcDbEntity
  8
0
100
AcDbCircle
 62
7
  6
CONTINUOUS
 10
216.1466224763
 20
910.4751814495
 40
6.75
100
AcDbArc
 50
135.0
 51
315.0
  0
ARC
  5
4B6
100
AcDbEntity
  8
0
100
AcDbCircle
 62
7
  6
CONTINUOUS
 10
216.1819778154
 20
910.5105367885
 40
6.75
100
AcDbArc
 50
315.0
 51
135.0
  0
ARC
  5
4B7
100
AcDbEntity
  8
0
100
AcDbCircle
 62
7
  6
CONTINUOUS
 10
216.1466224763
 20
1062.5738500827
 40
6.75
100
AcDbArc
 50
45.0
 51
225.0
  0
ARC
  5
4B8
100
AcDbEntity
  8
0
100
AcDbCircle
 62
7
  6
CONTINUOUS
 10
216.1819778154
 20
1062.5384947436
 40
6.75
100
AcDbArc
 50
225.0
 51
45.0
  0
ARC
  5
4B9
100
AcDbEntity
  8
0
100
AcDbCircle
 62
7
  6
CONTINUOUS
 10
368.2452911095
 20
910.4751814495
 40
6.75
100
AcDbArc
 50
225.0
 51
45.0
  0
ARC
  5
4BA
100
AcDbEntity
  8
0
100
AcDbCircle
 62
7
  6
CONTINUOUS
 10
368.2099357705
 20
910.5105367885
 40
6.75
100
AcDbArc
 50
45.0
 51
225.0
  0
ARC
  5
4BB
100
AcDbEntity
  8
0
100
AcDbCircle
 62
7
  6
CONTINUOUS
 10
292.1959567929
 20
986.5245157661
 40
130.0
100
AcDbArc
 50
122.204227504
 51
147.795772496
  0
ARC
  5
4BC
100
AcDbEntity
  8
0
100
AcDbCircle
 62
7
  6
CONTINUOUS
 10
292.1959567929
 20
986.5245157661
 40
130.0
100
AcDbArc
 50
212.204227504
 51
237.795772496
  0
ARC
  5
4BD
100
AcDbEntity
  8
0
100
AcDbCircle
 62
7
  6
CONTINUOUS
 10
292.1959567929
 20
986.5245157661
 40
130.0
100
AcDbArc
 50
302.204227504
 51
327.795772496
  0
ARC
  5
4BE
100
AcDbEntity
  8
0
100
AcDbCircle
 62
7
  6
CONTINUOUS
 10
292.1959567929
 20
986.5245157661
 40
130.0
100
AcDbArc
 50
32.204227504
 51
57.795772496
  0
ARC
  5
4BF
100
AcDbEntity
  8
0
100
AcDbCircle
 62
7
  6
CONTINUOUS
 10
292.1959567929
 20
986.5245157661
 40
120.0
100
AcDbArc
 50
307.6584620062
 51
322.3415379938
  0
ARC
  5
4C0
100
AcDbEntity
  8
0
100
AcDbCircle
 62
7
  6
CONTINUOUS
 10
292.1959567929
 20
986.5245157661
 40
120.0
100
AcDbArc
 50
217.6584620062
 51
232.3415379938
  0
ARC
  5
4C1
100
AcDbEntity
  8
0
100
AcDbCircle
 62
7
  6
CONTINUOUS
 10
292.1959567929
 20
986.5245157661
 40
120.0
100
AcDbArc
 50
127.6584620062
 51
142.3415379938
  0
ARC
  5
4C2
100
AcDbEntity
  8
0
100
AcDbCircle
 62
7
  6
CONTINUOUS
 10
292.1959567929
 20
986.5245157661
 40
120.0
100
AcDbArc
 50
37.6584620062
 51
52.3415379938
  0
ARC
  5
4C3
100
AcDbEntity
  8
0
100
AcDbCircle
 62
9
  6
CONTINUOUS
 10
292.1959567929
 20
986.5245157661
 40
111.0
100
AcDbArc
 50
41.8979996009
 51
48.1020003991
  0
ARC
  5
4C4
100
AcDbEntity
  8
0
100
AcDbCircle
 62
9
  6
CONTINUOUS
 10
292.1959567929
 20
986.5245157661
 40
111.0
100
AcDbArc
 50
311.8979996008
 51
318.1020003992
  0
ARC
  5
4C5
100
AcDbEntity
  8
0
100
AcDbCircle
 62
9
  6
CONTINUOUS
 10
292.1959567929
 20
986.5245157661
 40
111.0
100
AcDbArc
 50
221.8979996009
 51
228.1020003991
  0
ARC
  5
4C6
100
AcDbEntity
  8
0
100
AcDbCircle
 62
9
  6
CONTINUOUS
 10
292.1959567929
 20
986.5245157661
 40
111.0
100
AcDbArc
 50
131.8979996008
 51
138.1020003992
  0
ARC
  5
4C7
100
AcDbEntity
  8
0
100
AcDbCircle
 62
7
  6
CONTINUOUS
 10
292.1959567929
 20
986.5245157661
 40
110.7
100
AcDbArc
 50
41.8270884719
 51
48.1729115281
  0
ARC
  5
4C8
100
AcDbEntity
  8
0
100
AcDbCircle
 62
7
  6
CONTINUOUS
 10
292.1959567929
 20
986.5245157661
 40
110.7
100
AcDbArc
 50
131.8270884719
 51
138.1729115281
  0
ARC
  5
4C9
100
AcDbEntity
  8
0
100
AcDbCircle
 62
7
  6
CONTINUOUS
 10
292.1959567929
 20
986.5245157661
 40
110.7
100
AcDbArc
 50
311.8270884719
 51
318.1729115281
  0
ARC
  5
4CA
100
AcDbEntity
  8
0
100
AcDbCircle
 62
7
  6
CONTINUOUS
 10
292.1959567929
 20
986.5245157661
 40
110.7
100
AcDbArc
 50
221.8270884719
 51
228.1729115281
  0
CIRCLE
  5
4CB
100
AcDbEntity
  8
ANSICHT_3D
100
AcDbCircle
 62
2
  6
CENTER
 10
292.1959567929
 20
986.5245157661
 40
107.5
  0
CIRCLE
  5
4CC
100
AcDbEntity
  8
FASEN
100
AcDbCircle
 62
7
  6
CONTINUOUS
 10
292.1959567929
 20
986.5245157661
 40
80.0
  0
CIRCLE
  5
4CD
100
AcDbEntity
  8
FASEN
100
AcDbCircle
 62
7
  6
CONTINUOUS
 10
292.1959567929
 20
986.5245157661
 40
79.1250813409
  0
CIRCLE
  5
4CE
100
AcDbEntity
  8
0
100
AcDbCircle
 62
7
  6
CONTINUOUS
 10
292.1959567929
 20
986.5245157661
 40
40.0
  0
CIRCLE
  5
4CF
100
AcDbEntity
  8
0
100
AcDbCircle
 62
7
  6
CONTINUOUS
 10
292.1959567929
 20
986.5245157661
 40
27.5
  0
CIRCLE
  5
4D0
100
AcDbEntity
  8
BOHRUNGEN
100
AcDbCircle
 62
7
  6
CONTINUOUS
 10
292.1959567929
 20
986.5245157661
 40
14.2
  0
CIRCLE
  5
4D1
100
AcDbEntity
  8
BOHRUNGEN
100
AcDbCircle
 62
7
  6
CONTINUOUS
 10
292.1959567929
 20
986.5245157661
 40
10.5
  0
ARC
  5
4D2
100
AcDbEntity
  8
0
100
AcDbCircle
 62
2
  6
CONTINUOUS
 10
292.1959567929
 20
986.5245157661
 40
10.0
100
AcDbArc
 50
255.0
 51
195.0
  0
CIRCLE
  5
4D3
100
AcDbEntity
  8
BOHRUNGEN
100
AcDbCircle
 62
7
  6
CONTINUOUS
 10
292.1959567929
 20
986.5245157661
 40
8.75
  0
ARC
  5
4D4
100
AcDbEntity
  8
0
100
AcDbCircle
 62
7
  6
CONTINUOUS
 10
368.2452911095
 20
1062.5738500827
 40
6.75
100
AcDbArc
 50
315.0
 51
135.0
  0
ARC
  5
4D5
100
AcDbEntity
  8
0
100
AcDbCircle
 62
7
  6
CONTINUOUS
 10
368.2099357705
 20
1062.5384947436
 40
6.75
100
AcDbArc
 50
135.0
 51
315.0
  0
CIRCLE
  5
4D6
100
AcDbEntity
  8
BEZUGSACHSEN
100
AcDbCircle
 62
7
  6
CONTINUOUS
 10
1715.9624784384
 20
928.0197192583
 40
9.0
  0
CIRCLE
  5
4D7
100
AcDbEntity
  8
0
100
AcDbCircle
 62
7
  6
CONTINUOUS
 10
1715.9624784384
 20
928.0197192583
 40
8.0
  0
ARC
  5
4D8
100
AcDbEntity
  8
0
100
AcDbCircle
 62
2
  6
CONTINUOUS
 10
1716.4309401665
 20
903.4394689767
 40
6.0
100
AcDbArc
 50
255.0
 51
195.0
  0
CIRCLE
  5
4D9
100
AcDbEntity
  8
BEZUGSACHSEN
100
AcDbCircle
 62
7
  6
CONTINUOUS
 10
1716.4309401665
 20
903.4394689767
 40
5.1
  0
CIRCLE
  5
4DA
100
AcDbEntity
  8
BEZUGSACHSEN
100
AcDbCircle
 62
7
  6
CONTINUOUS
 10
1741.0111904481
 20
1070.0780242835
 40
9.0
  0
CIRCLE
  5
4DB
100
AcDbEntity
  8
0
100
AcDbCircle
 62
7
  6
CONTINUOUS
 10
1741.0111904481
 20
1070.0780242835
 40
8.0
  0
ARC
  5
4DC
100
AcDbEntity
  8
0
100
AcDbCircle
 62
2
  6
CONTINUOUS
 10
1716.4309401665
 20
1069.6095625555
 40
6.0
100
AcDbArc
 50
255.0
 51
195.0
  0
CIRCLE
  5
4DD
100
AcDbEntity
  8
BEZUGSACHSEN
100
AcDbCircle
 62
7
  6
CONTINUOUS
 10
1716.4309401665
 20
1069.6095625555
 40
5.1
  0
CIRCLE
  5
4DE
100
AcDbEntity
  8
BEZUGSACHSEN
100
AcDbCircle
 62
7
  6
CONTINUOUS
 10
1858.0207834637
 20
902.9710072486
 40
9.0
  0
CIRCLE
  5
4DF
100
AcDbEntity
  8
0
100
AcDbCircle
 62
7
  6
CONTINUOUS
 10
1858.0207834637
 20
902.9710072486
 40
8.0
  0
ARC
  5
4E0
100
AcDbEntity
  8
0
100
AcDbCircle
 62
2
  6
CONTINUOUS
 10
1882.6010337453
 20
903.4394689767
 40
6.0
100
AcDbArc
 50
255.0
 51
195.0
  0
CIRCLE
  5
4E1
100
AcDbEntity
  8
BEZUGSACHSEN
100
AcDbCircle
 62
7
  6
CONTINUOUS
 10
1882.6010337453
 20
903.4394689767
 40
5.1
  0
ARC
  5
4E2
100
AcDbEntity
  8
0
100
AcDbCircle
 62
7
  6
CONTINUOUS
 10
1799.5159869559
 20
986.5245157661
 40
130.0
100
AcDbArc
 50
212.204227504
 51
237.795772496
  0
ARC
  5
4E3
100
AcDbEntity
  8
0
100
AcDbCircle
 62
7
  6
CONTINUOUS
 10
1799.5159869559
 20
986.5245157661
 40
130.0
100
AcDbArc
 50
302.204227504
 51
327.795772496
  0
ARC
  5
4E4
100
AcDbEntity
  8
0
100
AcDbCircle
 62
7
  6
CONTINUOUS
 10
1799.5159869559
 20
986.5245157661
 40
130.0
100
AcDbArc
 50
32.204227504
 51
57.795772496
  0
ARC
  5
4E5
100
AcDbEntity
  8
0
100
AcDbCircle
 62
7
  6
CONTINUOUS
 10
1799.5159869559
 20
986.5245157661
 40
130.0
100
AcDbArc
 50
122.204227504
 51
147.795772496
  0
CIRCLE
  5
4E6
100
AcDbEntity
  8
ANSICHT_3D
100
AcDbCircle
 62
2
  6
CENTER
 10
1799.5159869559
 20
986.5245157661
 40
117.5
  0
ARC
  5
4E7
100
AcDbEntity
  8
BEZUGSACHSEN
100
AcDbCircle
 62
7
  6
CONTINUOUS
 10
1799.5159869559
 20
986.5245157661
 40
100.0
100
AcDbArc
 50
219.9797163755
 51
300.0202836245
  0
ARC
  5
4E8
100
AcDbEntity
  8
BEZUGSACHSEN
100
AcDbCircle
 62
7
  6
CONTINUOUS
 10
1799.5159869559
 20
986.5245157661
 40
100.0
100
AcDbArc
 50
129.9797163755
 51
210.0202836245
  0
ARC
  5
4E9
100
AcDbEntity
  8
BEZUGSACHSEN
100
AcDbCircle
 62
7
  6
CONTINUOUS
 10
1799.5159869559
 20
986.5245157661
 40
100.0
100
AcDbArc
 50
309.9797163755
 51
30.0202836245
  0
ARC
  5
4EA
100
AcDbEntity
  8
BEZUGSACHSEN
100
AcDbCircle
 62
7
  6
CONTINUOUS
 10
1799.5159869559
 20
986.5245157661
 40
100.0
100
AcDbArc
 50
39.9797163755
 51
120.0202836245
  0
CIRCLE
  5
4EB
100
AcDbEntity
  8
0
100
AcDbCircle
 62
7
  6
CONTINUOUS
 10
1799.5159869559
 20
986.5245157661
 40
50.0
  0
ARC
  5
4EC
100
AcDbEntity
  8
0
100
AcDbCircle
 62
7
  6
CONTINUOUS
 10
1799.5159869559
 20
986.5245157661
 40
43.0
100
AcDbArc
 50
270.9993956683
 51
269.0006043317
  0
ARC
  5
4ED
100
AcDbEntity
  8
0
100
AcDbCircle
 62
7
  6
CONTINUOUS
 10
1799.5159869559
 20
986.5245157661
 40
40.0
100
AcDbArc
 50
268.9256411771
 51
271.0743588229
  0
CIRCLE
  5
4EE
100
AcDbEntity
  8
0
100
AcDbCircle
 62
7
  6
CONTINUOUS
 10
1799.5159869559
 20
986.5245157661
 40
24.0
  0
ARC
  5
4EF
100
AcDbEntity
  8
0
100
AcDbCircle
 62
7
  6
CONTINUOUS
 10
1799.5159869559
 20
986.5245157661
 40
23.95
100
AcDbArc
 50
271.7945244711
 51
268.2054755289
  0
ARC
  5
4F0
100
AcDbEntity
  8
0
100
AcDbCircle
 62
7
  6
CONTINUOUS
 10
1799.5159869559
 20
986.5245157661
 40
21.0
100
AcDbArc
 50
272.0467130977
 51
267.9532869023
  0
CIRCLE
  5
4F1
100
AcDbEntity
  8
BEZUGSACHSEN
100
AcDbCircle
 62
7
  6
CONTINUOUS
 10
1883.0694954734
 20
1045.0293122739
 40
9.0
  0
CIRCLE
  5
4F2
100
AcDbEntity
  8
0
100
AcDbCircle
 62
7
  6
CONTINUOUS
 10
1883.0694954734
 20
1045.0293122739
 40
8.0
  0
ARC
  5
4F3
100
AcDbEntity
  8
0
100
AcDbCircle
 62
2
  6
CONTINUOUS
 10
1882.6010337453
 20
1069.6095625555
 40
6.0
100
AcDbArc
 50
255.0
 51
195.0
  0
CIRCLE
  5
4F4
100
AcDbEntity
  8
BEZUGSACHSEN
100
AcDbCircle
 62
7
  6
CONTINUOUS
 10
1882.6010337453
 20
1069.6095625555
 40
5.1
  0
SPLINE
  5
4F5
100
AcDbEntity
  8
0
100
AcDbSpline
 62
7
  6
CONTINUOUS
 70
0
 71
3
 72
12
 73
8
 74
0
 42
0.0000001
 43
0.0000001
 44
0.0000000001
 40
0.0
 40
0.0
 40
0.0
 40
0.0
 40
0.1250351109
 40
0.2500834853
 40
0.4998304663
 40
0.7498665632
 40
1.0
 40
1.0
 40
1.0
 40
1.0
 10
1039.8293319903
 20
986.5245157661
 30
0.0
 10
1039.8293319903
 20
983.7303030945
 30
0.0
 10
1039.3156469647
 20
978.1292759428
 30
0.0
 10
1036.3932278186
 20
967.3024851567
 30
0.0
 10
1029.8582507342
 20
954.7937933444
 30
0.0
 10
1019.5200192468
 20
941.5505203367
 30
0.0
 10
1011.6920192489
 20
933.5460926267
 30
0.0
 10
1007.6395616775
 20
929.6959138125
 30
0.0
  0
SPLINE
  5
4F6
100
AcDbEntity
  8
0
100
AcDbSpline
 62
7
  6
CONTINUOUS
 70
0
 71
3
 72
12
 73
8
 74
0
 42
0.0000001
 43
0.0000001
 44
0.0000000001
 40
0.0
 40
0.0
 40
0.0
 40
0.0
 40
0.2977833076
 40
0.4490024982
 40
0.6206521492
 40
0.8066196304
 40
1.0
 40
1.0
 40
1.0
 40
1.0
 10
1136.3293895346
 20
1014.0244647381
 30
0.0
 10
1135.5463720871
 20
1014.213072026
 30
0.0
 10
1138.6357365006
 20
1013.4076315507
 30
0.0
 10
1139.8539266997
 20
1013.2106569757
 30
0.0
 10
1141.3187603242
 20
1012.9902832852
 30
0.0
 10
1142.7726155383
 20
1012.8678072516
 30
0.0
 10
1143.8062975175
 20
1012.8351599999
 30
0.0
 10
1144.3293319903
 20
1012.8351599999
 30
0.0
  0
SPLINE
  5
4F7
100
AcDbEntity
  8
0
100
AcDbSpline
 62
7
  6
CONTINUOUS
 70
0
 71
3
 72
9
 73
5
 74
0
 42
0.0000001
 43
0.0000001
 44
0.0000000001
 40
0.0
 40
0.0
 40
0.0
 40
0.0
 40
0.4995531685
 40
1.0
 40
1.0
 40
1.0
 40
1.0
 10
981.0950935874
 20
913.2271761145
 30
0.0
 10
982.3196575066
 20
915.6378637093
 30
0.0
 10
983.9166507002
 20
920.9013506676
 30
0.0
 10
984.3293319903
 20
926.3223417602
 30
0.0
 10
984.3293319903
 20
929.0310596167
 30
0.0
  0
SPLINE
  5
4F8
100
AcDbEntity
  8
0
100
AcDbSpline
 62
7
  6
CONTINUOUS
 70
0
 71
3
 72
9
 73
5
 74
0
 42
0.0000001
 43
0.0000001
 44
0.0000000001
 40
0.0
 40
0.0
 40
0.0
 40
0.0
 40
0.5004488775
 40
1.0
 40
1.0
 40
1.0
 40
1.0
 10
984.3293319903
 20
1044.0179719154
 30
0.0
 10
984.3293319903
 20
1046.7267008859
 30
0.0
 10
983.9166500799
 20
1052.1476926158
 30
0.0
 10
982.3196525095
 20
1057.4111776601
 30
0.0
 10
981.0950935874
 20
1059.8218554177
 30
0.0
  0
SPLINE
  5
4F9
100
AcDbEntity
  8
0
100
AcDbSpline
 62
7
  6
CONTINUOUS
 70
0
 71
3
 72
12
 73
8
 74
0
 42
0.0000001
 43
0.0000001
 44
0.0000000001
 40
0.0
 40
0.0
 40
0.0
 40
0.0
 40
0.2501329821
 40
0.5001684401
 40
0.7499158214
 40
0.8749646381
 40
1.0
 40
1.0
 40
1.0
 40
1.0
 10
1007.6395616775
 20
1043.3531177197
 30
0.0
 10
1011.6920118413
 20
1039.5029459433
 30
0.0
 10
1019.5200003974
 20
1031.4985404413
 30
0.0
 10
1029.8582106415
 20
1018.2552727567
 30
0.0
 10
1036.3932157688
 20
1005.746590858
 30
0.0
 10
1039.3156445652
 20
994.9197764803
 30
0.0
 10
1039.8293319903
 20
989.31873402
 30
0.0
 10
1039.8293319903
 20
986.5245157661
 30
0.0
  0
SPLINE
  5
4FA
100
AcDbEntity
  8
0
100
AcDbSpline
 62
7
  6
CONTINUOUS
 70
0
 71
3
 72
11
 73
7
 74
0
 42
0.0000001
 43
0.0000001
 44
0.0000000001
 40
0.0
 40
0.0
 40
0.0
 40
0.0
 40
0.3792635255
 40
0.702110722
 40
0.9214768238
 40
1.0
 40
1.0
 40
1.0
 40
1.0
 10
1198.3293319903
 20
1012.8351599999
 30
0.0
 10
1199.3549160877
 20
1012.8351599999
 30
0.0
 10
1201.2560837416
 20
1012.944736849
 30
0.0
 10
1203.7154618829
 20
1013.3598129291
 30
0.0
 10
1205.3528877309
 20
1013.7359023038
 30
0.0
 10
1206.123073005
 20
1013.9737847444
 30
0.0
 10
1206.3292744459
 20
1014.0244647381
 30
0.0
  0
ENDSEC
  0
SECTION
  2
OBJECTS
  0
DICTIONARY
  5
C
100
AcDbDictionary
280
0
281
1
  3
ACAD_GROUP
350
D
  3
ACAD_MLINESTYLE
350
17
  3
ACAD_LAYOUT
350
1A
  3
ACAD_PLOTSETTINGS
350
19
  3
ACAD_PLOTSTYLENAME
350
E
  0
DICTIONARY
  5
D
102
{ACAD_REACTORS
330
C
102
}
100
AcDbDictionary
280
0
281
1
  0
ACDBDICTIONARYWDFLT
  5
E
102
{ACAD_REACTORS
330
C
102
}
100
AcDbDictionary
281
1
  3
Normal
350
F
100
AcDbDictionaryWithDefault
340
F
  0
DICTIONARY
  5
17
102
{ACAD_REACTORS
330
C
102
}
100
AcDbDictionary
280
0
281
1
  3
Standard
350
18
  0
DICTIONARY
  5
19
102
{ACAD_REACTORS
330
C
102
}
100
AcDbDictionary
281
1
  0
DICTIONARY
  5
1A
102
{ACAD_REACTORS
330
C
102
}
100
AcDbDictionary
281
1
  3
Model
350
4FB
  3
Layout1
350
4FC
  0
ACDBPLACEHOLDER
  5
F
102
{ACAD_REACTORS
330
E
102
}
  0
MLINESTYLE
  5
18
102
{ACAD_REACTORS
330
17
102
}
100
AcDbMlineStyle
  2
STANDARD
 70
0
  3

 62
256
 51
90.0
 52
90.0
 71
2
 49
0.5
 62
256
  6
BYLAYER
 49
-0.5
 62
256
  6
BYLAYER
  0
LAYOUT
  5
4FB
102
{ACAD_REACTORS
330
1A
102
}
100
AcDbPlotSettings
  1

  2
none_device
  4
ISO_A3_(420.00_x_297.00_MM)
  6

 40
0.0
 41
0.0
 42
0.0
 43
0.0
 44
420.0
 45
297.0
 46
0.0
 47
0.0
 48
0.0
 49
0.0
140
0.0
141
0.0
142
1.0
143
1.0
 70
1024
 72
1
 73
0
 74
0
  7

 75
0
147
1.0
148
0.0
149
0.0
100
AcDbLayout
  1
Model
 70
0
 71
0
 10
0.0
 20
0.0
 11
420.0
 21
297.0
 12
0.0
 22
0.0
 32
0.0
 14
0.0
 24
0.0
 34
0.0
 15
0.0
 25
0.0
 35
0.0
146
0.0
 13
0.0
 23
0.0
 33
0.0
 16
1.0
 26
0.0
 36
0.0
 17
0.0
 27
1.0
 37
0.0
 76
0
330
21A
345
0
346
0
  0
LAYOUT
  5
4FC
102
{ACAD_REACTORS
330
1A
102
}
100
AcDbPlotSettings
  1

  2
none_device
  4
ISO_A3_(420.00_x_297.00_MM)
  6

 40
0.0
 41
0.0
 42
0.0
 43
0.0
 44
420.0
 45
297.0
 46
0.0
 47
0.0
 48
0.0
 49
0.0
140
0.0
141
0.0
142
1.0
143
1.0
 70
0
 72
1
 73
0
 74
0
  7

 75
0
147
1.0
148
0.0
149
0.0
100
AcDbLayout
  1
Layout1
 70
0
 71
1
 10
0.0
 20
0.0
 11
420.0
 21
297.0
 12
0.0
 22
0.0
 32
0.0
 14
0.0
 24
0.0
 34
0.0
 15
0.0
 25
0.0
 35
0.0
146
0.0
 13
0.0
 23
0.0
 33
0.0
 16
1.0
 26
0.0
 36
0.0
 17
0.0
 27
1.0
 37
0.0
 76
0
330
21B
345
0
346
0
  0
ENDSEC
  0
EOF
